Subcategories

Prince: A Purple Reign (2011 BBC Four) **[RE-UP]**

Posted By: TestTickles
Prince: A Purple Reign (2011 BBC Four) **[RE-UP]**

Prince: A Purple Reign (2011 BBC Four)
Web rip | 640 x 360 (MP4) @ 16:9 | MP3: 93.5 kbps @ 48.0 KHz | 59 min | English | 331 mb
Genre: music, documentary

Prince: A Purple Reign is a BBC Four documentary released in 2011, as part of the network's Black Music Legends Of The 1980's series. It features music and interviews with people associated with Prince, along with clips of interviews when Prince did grant interviews.

Prince: A Purple Reign (2011 BBC Four) **[RE-UP]**


General
Complete name : C:\My Documents\AAA Videos\Black Music Legends Of The 1980's - Prince, A Purple Reign (2011 BBC Four)\Black.Music.Legends.of.the.1980s.E02.Prince.A.Purple.Reign.WEB.DL.x264.OM.mp4
Format : MPEG-4
Format profile : Base Media
Codec ID : isom
File size : 340 MiB
Duration : 59mn 14s
Overall bit rate mode : Constant
Overall bit rate : 803 Kbps
Collection : Black Music Legends of the 1980s
Season : 1
Album : Black Music Legends of the 1980s
Album/Performer : BBC TV
Part : 2
Part/Position : 1
Track name : Prince: A Purple Reign
Track name/Position : 2
Grouping : Factual,Arts, Culture & the Media,Music,Arts,Documentaries
Performer : BBC Four
Composer : BBC iPlayer
Genre : Factual
ContentType : TV Show
Description : Documentary showing how Prince revolutionised the perception of black music in the 1980s.
Recorded date : UTC 2011-11-25 21:00:00
Tagged date : UTC 2016-04-23 06:59:54
Writing application : Lavf55.33.100
Copyright : 2016 British Broadcasting Corporation, all rights reserved
Cover : Yes
Lyrics : Documentary film, which explores how Prince - showman, artist, enigma - revolutionised the perception of black music in the 1980s with worldwide hits such as 1999, Kiss, Raspberry Beret and Alphabet Street. He became a global sensation with the release of the Oscar-winning, semi-autobiographical movie Purple Rain in 1984, embarking on an incredible journey of musical self-discovery that continued right up to his passing in April 2016, aged 57. / / From the psychedelic Around the World in a Day to his masterpiece album Sign O' the Times and experiments with hip-hop and jazz, Prince was one of most ambitious and prolific songwriters of his generation. He tested the boundaries of taste and decency with explicit sexual lyrics and stage shows during his early career and in the 1990s fought for ownership of his name and control of his music, played out in a public battle with his former label, Warner. Highly regarded as one of the most flamboyant live performers ever, Prince was a controversial and famously elusive creative force. / / Contributors include Revolution guitarist Dez Dickerson, Paisley Park label president Alan Leeds, hip-hop legend Chuck D and Prince 'Mastermind' and UK soul star Beverley Knight. / / EPISODE / http://www.bbc.co.uk/iplayer/episode/b0177bjb / / SERIES / http://www.bbc.co.uk/programmes/b018grpn
Comment : Documentary showing how Prince revolutionised the perception of black music in the 1980s.
Part_ID : s01e02
TVNetworkName : BBC Four

Video
ID : 1
Format : AVC
Format/Info : Advanced Video Codec
Format profile : Main@L3
Format settings, CABAC : Yes
Format settings, ReFrames : 2 frames
Codec ID : avc1
Codec ID/Info : Advanced Video Coding
Duration : 59mn 14s
Bit rate mode : Constant
Bit rate : 704 Kbps
Width : 640 pixels
Height : 360 pixels
Display aspect ratio : 16:9
Frame rate mode : Constant
Frame rate : 25.000 fps
Color space : YUV
Chroma subsampling : 4:2:0
Bit depth : 8 bits
Scan type : Progressive
Bits/(Pixel*Frame) : 0.122
Stream size : 298 MiB (88%)

Audio
ID : 2
Format : AAC
Format/Info : Advanced Audio Codec
Format profile : LC
Codec ID : 40
Duration : 59mn 14s
Bit rate mode : Constant
Bit rate : 93.5 Kbps
Channel(s) : 2 channels
Channel positions : Front: L R
Sampling rate : 48.0 KHz
Compression mode : Lossy
Stream size : 39.6 MiB (12%)