Subcategories

Pink Floyd - The Piper At The Gates Of Dawn (1967) {1987 Capitol US} *[RE-UP]**

Posted By: TestTickles
Pink Floyd - The Piper At The Gates Of Dawn (1967) {1987 Capitol US} *[RE-UP]**

Pink Floyd - The Piper At The Gates Of Dawn (1967) {1987 Capitol US; CDP 7 46384-2}
EAC Rip | FLAC with CUE and log | scans | 239 mb
MP3 CBR 320kbps | RAR | 97 mb
Genre: progressive rock, classic rock

The Piper At The Gates Of Dawn is the 1967 debut album by British progressive rock combo The Pink Floyd. This is from the first digital version released for the U.S. by Capitol in 1987.

Pink Floyd - The Piper At The Gates Of Dawn (1967) {1987 Capitol US} *[RE-UP]**

1. Astronomy Domine (4:12)
2. Lucifer Sam (3:07)
3. Matilda Mother (3:07)
4. Flaming (2:45)
5. Pow R. Toc H. (4:26)
6. Take Up Thy Stethoscope And Walk (3:06)
7. Interstellar Overdrive (9:41)
8. The Gnome (2:13)
9. Chapter 24 (3:41)
10. Scarecrow (2:10)
11. Bike (3:22)

Syd Barrett-lead guitar, vocals
Roger Waters- bass guitar, vocals
Rick Wright-organ, piano
Nicky Mason-drums

Produced by Norman Smith
Engineered by Peter Bown

Exact Audio Copy V1.1 from 23. June 2015

EAC extraction logfile from 24. September 2016, 19:39

Pink Floyd / The Piper At The Gates Of Dawn

Used drive : TEAC DVD-ROM DV-28SW Adapter: 1 ID: 0

Read mode : Secure
Utilize accurate stream : Yes
Defeat audio cache : Yes
Make use of C2 pointers : No

Read offset correction : 6
Overread into Lead-In and Lead-Out : No
Fill up missing offset samples with silence : Yes
Delete leading and trailing silent blocks : No
Null samples used in CRC calculations : Yes
Used interface : Native Win32 interface for Win NT & 2000
Gap handling : Appended to previous track

Used output format : Internal WAV Routines
Sample format : 44.100 Hz; 16 Bit; Stereo


TOC of the extracted CD

Track | Start | Length | Start sector | End sector
––––––––––––––––––––––––––––-
1 | 0:00.33 | 4:12.52 | 33 | 18984
2 | 4:13.10 | 3:07.10 | 18985 | 33019
3 | 7:20.20 | 3:07.68 | 33020 | 47112
4 | 10:28.13 | 2:45.65 | 47113 | 59552
5 | 13:14.03 | 4:26.22 | 59553 | 79524
6 | 17:40.25 | 3:06.48 | 79525 | 93522
7 | 20:46.73 | 9:41.42 | 93523 | 137139
8 | 30:28.40 | 2:13.33 | 137140 | 147147
9 | 32:41.73 | 3:41.67 | 147148 | 163789
10 | 36:23.65 | 2:10.48 | 163790 | 173587
11 | 38:34.38 | 3:22.12 | 173588 | 188749


Track 1

Filename C:\My Documents\My FLAC\Pink Floyd - The Piper At The Gates Of Dawn (1967) [FLAC] {1987 Capitol US}\01 - Astronomy Domine.wav

Pre-gap length 0:00:02.33

Peak level 94.3 %
Extraction speed 1.9 X
Track quality 100.0 %
Test CRC F702A4A9
Copy CRC F702A4A9
Accurately ripped (confidence 28) [90F06BCD] (AR v2)
Copy OK

Track 2

Filename C:\My Documents\My FLAC\Pink Floyd - The Piper At The Gates Of Dawn (1967) [FLAC] {1987 Capitol US}\02 - Lucifer Sam.wav

Pre-gap length 0:00:01.65

Peak level 91.6 %
Extraction speed 2.0 X
Track quality 100.0 %
Test CRC F2BD8F8A
Copy CRC F2BD8F8A
Accurately ripped (confidence 28) [DCD407C1] (AR v2)
Copy OK

Track 3

Filename C:\My Documents\My FLAC\Pink Floyd - The Piper At The Gates Of Dawn (1967) [FLAC] {1987 Capitol US}\03 - Matilda Mother.wav

Pre-gap length 0:00:01.30

Peak level 100.0 %
Extraction speed 1.9 X
Track quality 99.9 %
Test CRC 2D30F35D
Copy CRC 2D30F35D
Accurately ripped (confidence 28) [52B6F91F] (AR v2)
Copy OK

Track 4

Filename C:\My Documents\My FLAC\Pink Floyd - The Piper At The Gates Of Dawn (1967) [FLAC] {1987 Capitol US}\04 - Flaming.wav

Pre-gap length 0:00:00.68

Peak level 100.0 %
Extraction speed 2.3 X
Track quality 100.0 %
Test CRC 7678BC25
Copy CRC 7678BC25
Accurately ripped (confidence 28) [23088383] (AR v2)
Copy OK

Track 5

Filename C:\My Documents\My FLAC\Pink Floyd - The Piper At The Gates Of Dawn (1967) [FLAC] {1987 Capitol US}\05 - Pow R Toc H.wav

Pre-gap length 0:00:01.40

Peak level 98.4 %
Extraction speed 2.6 X
Track quality 100.0 %
Test CRC 4A390970
Copy CRC 4A390970
Accurately ripped (confidence 28) [97A8195C] (AR v2)
Copy OK

Track 6

Filename C:\My Documents\My FLAC\Pink Floyd - The Piper At The Gates Of Dawn (1967) [FLAC] {1987 Capitol US}\06 - Take Up Thy Stethoscope And Walk.wav

Pre-gap length 0:00:01.35

Peak level 100.0 %
Extraction speed 2.6 X
Track quality 100.0 %
Test CRC C516F4F6
Copy CRC C516F4F6
Accurately ripped (confidence 28) [C9E1A99A] (AR v2)
Copy OK

Track 7

Filename C:\My Documents\My FLAC\Pink Floyd - The Piper At The Gates Of Dawn (1967) [FLAC] {1987 Capitol US}\07 - Interstellar Overdrive.wav

Pre-gap length 0:00:01.40

Peak level 100.0 %
Extraction speed 3.2 X
Track quality 100.0 %
Test CRC 9DD81C59
Copy CRC 9DD81C59
Accurately ripped (confidence 28) [FD78D62D] (AR v2)
Copy OK

Track 8

Filename C:\My Documents\My FLAC\Pink Floyd - The Piper At The Gates Of Dawn (1967) [FLAC] {1987 Capitol US}\08 - The Gnome.wav

Pre-gap length 0:00:00.01

Peak level 81.7 %
Extraction speed 2.3 X
Track quality 99.9 %
Test CRC 43918865
Copy CRC 43918865
Accurately ripped (confidence 28) [2E176B60] (AR v2)
Copy OK

Track 9

Filename C:\My Documents\My FLAC\Pink Floyd - The Piper At The Gates Of Dawn (1967) [FLAC] {1987 Capitol US}\09 - Chapter 24.wav

Pre-gap length 0:00:00.68

Peak level 81.8 %
Extraction speed 3.2 X
Track quality 100.0 %
Test CRC 259375B3
Copy CRC 259375B3
Accurately ripped (confidence 28) [7BD18C1E] (AR v2)
Copy OK

Track 10

Filename C:\My Documents\My FLAC\Pink Floyd - The Piper At The Gates Of Dawn (1967) [FLAC] {1987 Capitol US}\10 - Scarecrow.wav

Pre-gap length 0:00:01.52

Peak level 69.4 %
Extraction speed 3.0 X
Track quality 100.0 %
Test CRC CB949208
Copy CRC CB949208
Accurately ripped (confidence 28) [913DEB15] (AR v2)
Copy OK

Track 11

Filename C:\My Documents\My FLAC\Pink Floyd - The Piper At The Gates Of Dawn (1967) [FLAC] {1987 Capitol US}\11 - Bike.wav

Pre-gap length 0:00:01.30

Peak level 95.1 %
Extraction speed 2.9 X
Track quality 99.9 %
Test CRC 04B261CB
Copy CRC 04B261CB
Accurately ripped (confidence 28) [245CD87F] (AR v2)
Copy OK


All tracks accurately ripped

No errors occurred

End of status report

–– CUETools DB Plugin V2.1.6

[CTDB TOCID: .PNKix21hpgXXXksOoHx5ib7lgM-] found
Submit result: .PNKix21hpgXXXksOoHx5ib7lgM- has been confirmed
Track | CTDB Status
1 | (195/203) Accurately ripped
2 | (200/203) Accurately ripped
3 | (200/203) Accurately ripped
4 | (201/203) Accurately ripped
5 | (200/203) Accurately ripped
6 | (199/203) Accurately ripped
7 | (195/203) Accurately ripped
8 | (200/203) Accurately ripped
9 | (199/203) Accurately ripped
10 | (198/203) Accurately ripped
11 | (199/203) Accurately ripped


==== Log checksum B194844515D3F347929A065F661E267AE9C569561866560B8F860E7D1A0C619B ====


Pink Floyd - The Piper At The Gates Of Dawn (1967) {1987 Capitol US} *[RE-UP]**


Nitroflare (FLAC)
Nitroflare (MP3)
Icerbox (FLAC)
Icerbox (MP3)