Subcategories
Please register here if you want to download anything!

If domain in your address bar is different from the list below
PLEASE LEAVE THAT SITE IMMEDIATELY
❗IT'S A DANGEROUS FAKE❗



Spicy Magazines for Men! ;-)

Philip Lynott - The Philip Lynott Album (1982) [Non-Remastered] Re-Up

Posted By: Designol
Philip Lynott - The Philip Lynott Album (1982) [Non-Remastered] Re-Up

Philip Lynott - The Philip Lynott Album (1982)
EAC | FLAC | Image (Cue&Log) ~ 278 Mb | Mp3 (CBR320) ~ 111 Mb | Scans included
Rock, New Wave | Label: Vertigo | # 842 564-2 | Time: 00:44:14

Going by this album, Phil Lynott would have had a lot in common with Bob Geldof, with both of them writing songs that strove for memorable hooks and related to growing up in the rough end of Ireland. The Philip Lynott Album has some surprisingly sweet moments, considering Lynott's hard-rocking past with Thin Lizzy. It generated a bona fide European pop hit in a remodeled version of "Yellow Pearl" (co-written by Midge Ure of Ultravox), a sarcastic attack on Asian marketing methods.

Review by Steven McDonald, Allmusic.com

Philip Lynott - The Philip Lynott Album (1982) [Non-Remastered] Re-Up



Tracklist:

01. Fatalistic Attitude (04:31)
02. The Man's A Fool (02:58)
03. Old Town (03:27)
04. Cathleen (03:34)
05. Growing Up (05:00)
06. Yellow Pearl (02:58)
07. Together (03:40)
08. Little Bit Of Water (03:35)
09. Ode To Liberty (The Protest Song) (05:48)
10. Gino (04:10)
11. Don't Talk About Me Baby (04:30)


Exact Audio Copy V1.0 beta 3 from 29. August 2011

EAC extraction logfile from 31. July 2014, 10:54

Philip Lynott / The Philip Lynott Album

Used drive : ASUS SDRW-08D1S-U Adapter: 1 ID: 0

Read mode : Secure
Utilize accurate stream : Yes
Defeat audio cache : Yes
Make use of C2 pointers : No

Read offset correction : 667
Overread into Lead-In and Lead-Out : No
Fill up missing offset samples with silence : Yes
Delete leading and trailing silent blocks : No
Null samples used in CRC calculations : Yes
Used interface : Native Win32 interface for Win NT & 2000

Used output format : User Defined Encoder
Selected bitrate : 128 kBit/s
Quality : High
Add ID3 tag : No
Command line compressor : C:\Program Files (x86)\Exact Audio Copy\Flac\flac.exe
Additional command line options : -V -8 -T "Date=%year%" -T "Genre=%genre%" %source%


TOC of the extracted CD

Track | Start | Length | Start sector | End sector
––––––––––––––––––––––––––––-
1 | 0:00.33 | 4:31.37 | 33 | 20394
2 | 4:31.70 | 2:58.63 | 20395 | 33807
3 | 7:30.58 | 3:27.50 | 33808 | 49382
4 | 10:58.33 | 3:34.07 | 49383 | 65439
5 | 14:32.40 | 5:00.68 | 65440 | 88007
6 | 19:33.33 | 2:58.00 | 88008 | 101357
7 | 22:31.33 | 3:40.00 | 101358 | 117857
8 | 26:11.33 | 3:35.00 | 117858 | 133982
9 | 29:46.33 | 5:48.00 | 133983 | 160082
10 | 35:34.33 | 4:10.00 | 160083 | 178832
11 | 39:44.33 | 4:30.37 | 178833 | 199119


Range status and errors

Selected range

Filename C:\Users\Олег\Documents\The Philip Lynott Album\Philip Lynott - The Philip Lynott Album.wav

Peak level 97.4 %
Extraction speed 3.8 X
Range quality 100.0 %
Test CRC 050B1524
Copy CRC 050B1524
Copy OK

No errors occurred


AccurateRip summary

Track 1 accurately ripped (confidence 5) [B277D9AC] (AR v2)
Track 2 accurately ripped (confidence 5) [AD49409C] (AR v2)
Track 3 accurately ripped (confidence 5) [E1C87997] (AR v2)
Track 4 accurately ripped (confidence 5) [408DA569] (AR v2)
Track 5 accurately ripped (confidence 5) [0054DCF6] (AR v2)
Track 6 accurately ripped (confidence 5) [1C806437] (AR v2)
Track 7 accurately ripped (confidence 5) [BEDA87EF] (AR v2)
Track 8 accurately ripped (confidence 5) [EC374784] (AR v2)
Track 9 accurately ripped (confidence 5) [0D3F3361] (AR v2)
Track 10 accurately ripped (confidence 5) [AD61CA6F] (AR v2)
Track 11 accurately ripped (confidence 5) [4FE15789] (AR v2)

All tracks accurately ripped

End of status report

==== Log checksum DA2159A8551D07DE129665B4F44692041A7884254BCFEE0937479516282F7898 ====

foobar2000 1.2 / Dynamic Range Meter 1.1.1
log date: 2015-01-16 22:16:21

––––––––––––––––––––––––––––––––––––––––
Analyzed: Philip Lynott / The Philip Lynott Album
––––––––––––––––––––––––––––––––––––––––

DR Peak RMS Duration Track
––––––––––––––––––––––––––––––––––––––––
DR13 -1.02 dB -16.16 dB 4:31 01-Fatalistic Attitude
DR12 -1.05 dB -14.84 dB 2:59 02-The Man's A Fool
DR12 -1.60 dB -16.07 dB 3:28 03-Old Town
DR13 -0.22 dB -17.01 dB 3:34 04-Cathleen
DR14 -0.70 dB -17.38 dB 5:01 05-Growing Up
DR12 -0.83 dB -14.81 dB 2:58 06-Yellow Pearl
DR11 -1.22 dB -14.82 dB 3:40 07-Together
DR14 -1.33 dB -18.02 dB 3:35 08-Little Bit Of Water
DR12 -0.90 dB -14.33 dB 5:48 09-Ode To Liberty (The Protest Song)
DR13 -0.53 dB -16.29 dB 4:10 10-Gino
DR14 -0.93 dB -17.46 dB 4:30 11-Don't Talk About Me Baby
––––––––––––––––––––––––––––––––––––––––

Number of tracks: 11
Official DR value: DR13

Samplerate: 44100 Hz
Channels: 2
Bits per sample: 16
Bitrate: 847 kbps
Codec: FLAC
================================================================================

Philip Lynott - The Philip Lynott Album (1982) [Non-Remastered] Re-Up

Philip Lynott - The Philip Lynott Album (1982) [Non-Remastered] Re-Up