Subcategories
Tags
Language
Tags

Phil Collins Big Band - A Hot Night In Paris (1999) {Warner}

Posted By: tiburon
Phil Collins Big Band - A Hot Night In Paris (1999) {Warner}

Phil Collins Big Band - A Hot Night In Paris (1999) {Warner}
EAC 0.99pb4 | FLAC tracks level 5 | Cue+Log+M3U | Full Scans 300dpi | 495MB + 5% Recovery
MP3 CBR 320 Kbps | 169MB + 5% Recovery
Genre: Jazz, Big Band
Phil Collins Big Band - A Hot Night In Paris (1999) {Warner}

In the latter half of the '90s, Phil Collins' career hit a bit of a sales slump, and instead of shamelessly chasing after another number one single, he decided to change pace and try something different. Returning to the drums, he assembled the Phil Collins Big Band, reviving the sound of such idols as Buddy Rich and Sonny Payne, but largely sticking with his original material. After a brief European tour in 1996 (which happened to feature Quincy Jones as conductor and Tony Bennett as vocalist), he created a new version of the band featuring several accomplished jazz and studio musicians in support – notably alto saxophonist Gerald Albright, but also guitarist Daryl Stuermer, tenor saxophonist James Carter, and pianists George Duke and Brad Cole, among many others, in varying roles. That band toured America and Europe in 1998, and it's the one featured on the ten-song, 70-minute live album A Hot Night in Paris.
Track List
01. Sussudio 6:50
02. That's All 5:31
03. Invisible Touch 6:13
04. Hold On My Heart 6:34
05. Chips & Salsa 5:24
06. I Don't Care Anymore 6:08
07. Milestones 6:26
08. Against All Odds 4:57
09. Pick Up The Pieces 12:09
10. The Los Endos Suite 10:03

musicians
Phil Collins - drums, vocals
Gerald Albright - alto sax
Luis Conte - percussion
Matt James (alto),, Chris Collins (tenor) Larry Panella (tenor), Ian Nevins (tenor), Kevin Sheehan (baritone) - saxophones
Arturo Velasco, Scott Bliege, Mark Bettcher, Antonio Garcia - trombones
Dan Fornero, Harry Kim, Tito Carillo, Al Hood, Ron Modell - trumpets
Daryl Stuermer - guitar
Brad Cole - piano
Oleta Adams - piano, vocals
Doug Richeson - bass

Produced by Don Murray and Daryl Stuermer


Exact Audio Copy V0.99 prebeta 4 from 23. January 2008

EAC extraction logfile from 1. September 2008, 7:12

The Phil Collins Big Band / A Hot Night In Paris

Used drive : SONY CD-RW CRX230ED Adapter: 1 ID: 1

Read mode : Secure
Utilize accurate stream : Yes
Defeat audio cache : Yes
Make use of C2 pointers : No

Read offset correction : 6
Overread into Lead-In and Lead-Out : No
Fill up missing offset samples with silence : Yes
Delete leading and trailing silent blocks : No
Null samples used in CRC calculations : Yes
Used interface : Native Win32 interface for Win NT & 2000
Gap handling : Appended to previous track

Used output format : User Defined Encoder
Selected bitrate : 320 kBit/s
Quality : High
Add ID3 tag : No
Command line compressor : C:\Program Files\Exact Audio Copy\flac.exe
Additional command line options : -V -5 -T "artist=%a" -T "title=%t" -T "album=%g" -T "date=%y" -T "tracknumber=%n" -T "genre=%m" -T comment="%e" -T "comment=Exact Audio Copy (Secure Mode)" %s –verify


TOC of the extracted CD

Track | Start | Length | Start sector | End sector
––––––––––––––––––––––––––––-
1 | 0:00.32 | 6:52.35 | 32 | 30966
2 | 6:52.67 | 5:34.40 | 30967 | 56056
3 | 12:27.32 | 5:42.18 | 56057 | 81724
4 | 18:09.50 | 6:36.65 | 81725 | 111489
5 | 24:46.40 | 5:23.00 | 111490 | 135714
6 | 30:09.40 | 6:05.55 | 135715 | 163144
7 | 36:15.20 | 6:34.12 | 163145 | 192706
8 | 42:49.32 | 5:04.05 | 192707 | 215511
9 | 47:53.37 | 12:41.15 | 215512 | 272601
10 | 60:34.52 | 10:25.55 | 272602 | 319531


Track 1

Filename C:\FlowerJewel\EAC Ripped\Phil Collins Big Band - A Hot Night In Paris (1999)(flac)\01 - Sussudio.wav

Pre-gap length 0:00:02.32

Peak level 97.8 %
Track quality 99.9 %
Test CRC 59B9AF13
Copy CRC 59B9AF13
Accurately ripped (confidence 10) [66C5B278]
Copy OK

Track 2

Filename C:\FlowerJewel\EAC Ripped\Phil Collins Big Band - A Hot Night In Paris (1999)(flac)\02 - That's All.wav

Peak level 99.8 %
Track quality 100.0 %
Test CRC E71A953E
Copy CRC E71A953E
Accurately ripped (confidence 10) [170D6A90]
Copy OK

Track 3

Filename C:\FlowerJewel\EAC Ripped\Phil Collins Big Band - A Hot Night In Paris (1999)(flac)\03 - Invisible Touch.wav

Peak level 97.4 %
Track quality 100.0 %
Test CRC F044A170
Copy CRC F044A170
Accurately ripped (confidence 10) [682230E7]
Copy OK

Track 4

Filename C:\FlowerJewel\EAC Ripped\Phil Collins Big Band - A Hot Night In Paris (1999)(flac)\04 - Hold On My Heart.wav

Peak level 99.7 %
Track quality 100.0 %
Test CRC A50C4E5B
Copy CRC A50C4E5B
Accurately ripped (confidence 10) [E383FF7F]
Copy OK

Track 5

Filename C:\FlowerJewel\EAC Ripped\Phil Collins Big Band - A Hot Night In Paris (1999)(flac)\05 - Chips & Salsa.wav

Peak level 99.8 %
Track quality 100.0 %
Test CRC EAE8F46C
Copy CRC EAE8F46C
Accurately ripped (confidence 10) [257AC641]
Copy OK

Track 6

Filename C:\FlowerJewel\EAC Ripped\Phil Collins Big Band - A Hot Night In Paris (1999)(flac)\06 - I Don't Care Anymore.wav

Peak level 99.4 %
Track quality 100.0 %
Test CRC A29B95F8
Copy CRC A29B95F8
Accurately ripped (confidence 10) [550078A2]
Copy OK

Track 7

Filename C:\FlowerJewel\EAC Ripped\Phil Collins Big Band - A Hot Night In Paris (1999)(flac)\07 - Milestones.wav

Peak level 98.9 %
Track quality 99.9 %
Test CRC 76F804DC
Copy CRC 76F804DC
Accurately ripped (confidence 10) [57C1C738]
Copy OK

Track 8

Filename C:\FlowerJewel\EAC Ripped\Phil Collins Big Band - A Hot Night In Paris (1999)(flac)\08 - Against All Odds.wav

Peak level 96.7 %
Track quality 100.0 %
Test CRC 21BE7466
Copy CRC 21BE7466
Accurately ripped (confidence 10) [1EC31927]
Copy OK

Track 9

Filename C:\FlowerJewel\EAC Ripped\Phil Collins Big Band - A Hot Night In Paris (1999)(flac)\09 - Pick Up The Pieces.wav

Peak level 100.0 %
Track quality 100.0 %
Test CRC 8BD97217
Copy CRC 8BD97217
Accurately ripped (confidence 10) [2CF81967]
Copy OK

Track 10

Filename C:\FlowerJewel\EAC Ripped\Phil Collins Big Band - A Hot Night In Paris (1999)(flac)\10 - The Los Endos Suite.wav

Peak level 99.8 %
Track quality 100.0 %
Test CRC 5E26FB46
Copy CRC 5E26FB46
Accurately ripped (confidence 10) [1F3F6489]
Copy OK


All tracks accurately ripped

No errors occurred

End of status report


––––––––––––––––––––––––––––––––––––––––
Analyzed: The Phil Collins Big Band / A Hot Night In Paris
––––––––––––––––––––––––––––––––––––––––

DR Peak RMS Duration Track
––––––––––––––––––––––––––––––––––––––––
DR10 -0.19 dB -12.17 dB 6:52 01-Sussudio
DR10 -0.01 dB -13.66 dB 5:35 02-That's All
DR11 -0.23 dB -15.28 dB 5:42 03-Invisible Touch
DR14 -0.02 dB -19.25 dB 6:37 04-Hold On My Heart
DR10 -0.01 dB -12.30 dB 5:23 05-Chips & Salsa
DR10 -0.05 dB -14.02 dB 6:06 06-I Don't Care Anymore
DR10 -0.10 dB -13.57 dB 6:34 07-Milestones
DR10 -0.29 dB -15.47 dB 5:04 08-Against All Odds
DR9 0.00 dB -11.19 dB 12:41 09-Pick Up The Pieces
DR9 -0.01 dB -11.51 dB 10:26 10-The Los Endos Suite
––––––––––––––––––––––––––––––––––––––––

Number of tracks: 10
Official DR value: DR10

Samplerate: 44100 Hz
Channels: 2
Bits per sample: 16
Bitrate: 1004 kbps
Codec: FLAC
================================================================================

Phil Collins Big Band - A Hot Night In Paris (1999) {Warner}
Phil Collins Big Band - A Hot Night In Paris (1999) {Warner}
Phil Collins Big Band - A Hot Night In Paris (1999) {Warner}


Thanks to the original ripper