Subcategories
Tags
Language
Tags

Phil Collins - Going Back (2010) {CD/DVD, Exclusive Limited Edition}

Posted By: popsakov
Phil Collins - Going Back (2010) {CD/DVD, Exclusive Limited Edition}

Phil Collins - Going Back (2010) {CD/DVD, Exclusive Limited Edition}
EAC Rip | FLAC (Img) + Cue + Log ~ 533 Mb | MP3 CBR320 ~ 187 Mb | 01:17:46
DVD9 | ISO | MPEG-2 NTSC 4:3/NTSC 16:9 (720x480), 29.970 fps, VBR ~ 6000 Kbps
Audio: AC3, 224 Kbps; LPCM, 1536 Kbps | 1 h 55 min | ~ 7,44 Gb
Subtitles: English, Francais, Deutsch, Italiano, Portugues, Espanol
Full Scans ~ 119 Mb | RAR 5% Recovery
Pop Rock, Soul, Funk | Atlantic #075678905995

Going Back is the eighth solo studio album by English singer-songwriter Phil Collins. It was released on 13 September 2010 in the United Kingdom and 28 September 2010 in the United States, and features covers of '60s Motown and Soul standards. It also was his first full solo release in eight years, Collins having primarily concentrated on soundtracks, compilations, and his extensive touring as a solo artist and with Genesis. Collins has previously recorded and performed covers of Motown songs in his career. Most famously, his cover of "You Can't Hurry Love" reached number one on the UK charts in 1983. In addition, the Motown-esque "Two Hearts", written in collaboration with Motown songwriter Lamont Dozier appeared on the original soundtrack album from Collins' 1988 film Buster, and Smokey Robinson & The Miracles' "Tears of a Clown" appeared as a B-side on the 2003 single "The Least You Can Do", and a live version of "My Girl" first appeared on the Japanese release Live from the Board in 1995 and later on the 2004 album Love Songs: A Compilation… Old and New. There are two editions of the album; one with 18 tracks and a limited Going Back Ultimate Edition 25-track CD/29-song DVD set.

Like any baby boomer Phil Collins is no stranger to Motown. Arguably, he has a deeper connection than most, having scored a hit with a cover of the Supremes' “You Can’t Hurry Love” back in 1982 and then proving he was adept at writing his own Tamla bounce with 1988’s “Two Hearts,” so devoting a full album to Motown songs is not a huge stretch, but 2010’s Going Back – his first studio album since 2002’s Testify and only his fourth record since 1990 – is nevertheless mildly surprising in its fidelity to its source material. Collins hired three of the surviving Funk Brothers as instrumental support and set about replicating a bunch of Motown classics – 18 in its standard edition, a whopping 25 in its deluxe edition – in a studio in Switzerland. Replication is not an exaggeration: these are not interpretations but re-creations of the original arrangements and productions, the only difference being Collins’ vocals. He is too in love with the originals to change even tiny inflections but he’s also enjoying the process of making music with some of his idols. For a listener, this can be a shared fun, particularly when Collins explores some of the lesser-known songs, like “Girl (Why You Wanna Make Me Blue),” “Some of Your Lovin’,” “In My Lonely Room” and “Something About You.” Most of Going Back is devoted to the tried and true, though, the hits that remain staples on oldies stations across the globe, and whenever Collins is singing “Heatwave,” “Uptight,” “Papa Was a Rolling Stone,” “Jimmy Mack” or “Going to a Go-Go,” the album inches away from being a labor of love and into pure nostalgia trip, but even then the album is pleasant enough that it’s hard to complain.

~ Stephen Thomas Erlewine, All Music
Phil Collins - Going Back (2010) {CD/DVD, Exclusive Limited Edition}


***************

Phil Collins - Going Back (2010) {CD/DVD, Exclusive Limited Edition}

Phil Collins - Going Back (2010) {CD/DVD, Exclusive Limited Edition}

Track List CD:

01. Girl {Why You Wanna Make Me Blue} [0:02:33.24]
02. {Love Is Like A} Heatwave [0:02:53.10]
03. Uptight {Everything's Alright} [0:03:03.26]
04. Some Of Your Lovin' [0:03:18.69]
05. Ain't Too Proud To Beg [0:02:41.63]
06. In My Lonely Room [0:02:25.29]
07. Take Me In Your Arms {Rock Me For A Little While} [0:02:59.08]
08. Blame It On The Sun [0:03:26.06]
09. Papa Was A Rolling Stone [0:06:43.61]
10. Never Dreamed You'd Leave In Summer [0:02:59.63]
11. Standing In The Shadows Of Love [0:02:41.73]
12. You've Been Cheatin' [0:02:34.15]
13. Don't Look Back [0:03:06.09]
14. You Really Got A Hold On Me [0:03:07.16]
15. Do I Love You [0:02:50.36]
16. Jimmy Mack [0:02:56.13]
17. Something About You [0:02:47.04]
18. Love Is Here And Now You're Gone [0:02:40.10]
19. Loving You Is Sweeter Than Ever [0:02:48.03]
20. Ain't That Peculiar [0:03:04.53]
21. Going To A Go-Go [0:02:48.63]
22. Nowhere To Run [0:03:06.56]
23. Talkin About My Baby [0:02:47.43]
24. Dancing In The Street [0:02:44.64]
25. Going Back [0:04:37.09]

Personnel:
Phil Collins – vocals, drums (1-8, 10-18), percussion (1, 2, 3, 5, 6, 8, 10-18), keyboards (1, 2, 3, 11, 14, 17, 18), acoustic piano (4, 5), bass (4, 9, 11, 14), glockenspiel (5), electric piano (8), harp (8), guitars (14), organ (16), backing vocals (1, 4, 7, 8, 10-13, 15-18), handclaps (8), stomps (12), fingersnaps (18)
Ray Monette – guitar (1, 2, 3, 5, 6, 8, 10, 12, 13, 15, 16, 17), wah-wah guitar on "Papa Was a Rolling Stone"
Eddie Willis – guitar (1, 2, 3, 5, 6, 8, 10, 12, 13, 15-18)
Bob Babbitt – bass (1, 2, 3, 5-8, 10, 12, 13, 15-18)
Ronnie Caryl – acoustic guitar on "Blame It on the Sun" & "Do I Love You"
Connie Jackson-Comegys, Lynne Fiddmont-Linsey – backing vocals (2, 3, 5, 6, 7, 11, 12, 14)
Jason Rebello – acoustic piano (6, 7, 12, 13, 15, 16), electric piano (7), vibes (5, 13)
John Aram – trombone (1, 2, 3, 5, 6, 12, 13, 14, 16, 17), assisted handclaps (8), assisted fingersnaps (18), horn arrangements & transcriptions
Guy Barker – trumpet (1, 2, 3, 5, 6, 12, 13, 14, 16, 17), trumpet solo on "Papa Was a Rolling Stone"
Tom Rees-Roberts – trumpet (1, 2, 3, 5, 6, 12, 13, 14, 16, 17)
Phil Todd – baritone saxophone (1, 2, 3, 5, 6, 12, 13, 14, 15, 16, 17), baritone sax solo (2, 5, 6), flute (9), piccolo (10)
Graeme Blevins – tenor saxophone (1, 2, 3, 5, 6, 12, 13, 14, 16, 17), tenor sax solo on "Something About You" & " Going to a Go-Go"
Celeste-Marie Roy – bassoon on "Standing in the Shadows of Love"
Steve Jones – assisted fingersnaps (18), assisted handclaps (8)
Nicholas & Matthew Collins – assisted handclaps (8), assisted fingersnaps (18), stomps (12), additional backing vocals on "Love Is Here and Now You're Gone"
Scott Stroman – string arrangements & transcriptions, conductor
Menhuin Academy – strings

Exact Audio Copy V1.2 from 12. August 2016

EAC extraction logfile from 25. September 2016, 2:30

Phil Collins / Going Back {Exclusive Limited}

Used drive : PLEXTOR DVDR PX-716A Adapter: 1 ID: 0

Read mode : Secure
Utilize accurate stream : Yes
Defeat audio cache : Yes
Make use of C2 pointers : No

Read offset correction : 30
Overread into Lead-In and Lead-Out : No
Fill up missing offset samples with silence : Yes
Delete leading and trailing silent blocks : No
Null samples used in CRC calculations : Yes
Used interface : Native Win32 interface for Win NT & 2000

Used output format : User Defined Encoder
Selected bitrate : 1024 kBit/s
Quality : High
Add ID3 tag : No
Command line compressor : C:\Program Files (x86)\Exact Audio Copy\FLAC\FLAC.EXE
Additional command line options : -6 -V -T "ARTIST=%artist%" -T "TITLE=%title%" -T "ALBUM=%albumtitle%" -T "DATE=%year%" -T "TRACKNUMBER=%tracknr%" -T "GENRE=%genre%" -T "COMMENT=%comment%" -T "BAND=%albuminterpret%" -T "ALBUMARTIST=%albuminterpret%" -T "COMPOSER=%composer%" %haslyrics%–tag-from-file=LYRICS="%lyricsfile%"%haslyrics% -T "DISCNUMBER=%cdnumber%" -T "TOTALDISCS=%totalcds%" -T "TOTALTRACKS=%numtracks%" %hascover%–picture="%coverfile%"%hascover% %source% -o %dest%


TOC of the extracted CD

Track | Start | Length | Start sector | End sector
––––––––––––––––––––––––––––-
1 | 0:00.00 | 2:33.24 | 0 | 11498
2 | 2:33.24 | 2:53.10 | 11499 | 24483
3 | 5:26.34 | 3:03.26 | 24484 | 38234
4 | 8:29.60 | 3:18.69 | 38235 | 53153
5 | 11:48.54 | 2:41.63 | 53154 | 65291
6 | 14:30.42 | 2:25.29 | 65292 | 76195
7 | 16:55.71 | 2:59.08 | 76196 | 89628
8 | 19:55.04 | 3:26.06 | 89629 | 105084
9 | 23:21.10 | 6:43.61 | 105085 | 135370
10 | 30:04.71 | 2:59.63 | 135371 | 148858
11 | 33:04.59 | 2:41.73 | 148859 | 161006
12 | 35:46.57 | 2:34.15 | 161007 | 172571
13 | 38:20.72 | 3:06.09 | 172572 | 186530
14 | 41:27.06 | 3:07.16 | 186531 | 200571
15 | 44:34.22 | 2:50.36 | 200572 | 213357
16 | 47:24.58 | 2:56.13 | 213358 | 226570
17 | 50:20.71 | 2:47.04 | 226571 | 239099
18 | 53:08.00 | 2:40.10 | 239100 | 251109
19 | 55:48.10 | 2:48.03 | 251110 | 263712
20 | 58:36.13 | 3:04.53 | 263713 | 277565
21 | 61:40.66 | 2:48.63 | 277566 | 290228
22 | 64:29.54 | 3:06.56 | 290229 | 304234
23 | 67:36.35 | 2:47.43 | 304235 | 316802
24 | 70:24.03 | 2:44.64 | 316803 | 329166
25 | 73:08.67 | 4:37.09 | 329167 | 349950


Range status and errors

Selected range

Filename C:\mm\Phil Collins\2010 - Going Back {Exclusive Limited} [075678905995]\Phil Collins - Going Back {Exclusive Limited}.wav

Peak level 100.0 %
Extraction speed 3.8 X
Range quality 100.0 %
Test CRC 015E59F0
Copy CRC 015E59F0
Copy OK

No errors occurred


AccurateRip summary

Track 1 accurately ripped (confidence 93) [55E0616A] (AR v2)
Track 2 accurately ripped (confidence 93) [774D9EB1] (AR v2)
Track 3 accurately ripped (confidence 92) [2B84AA1E] (AR v2)
Track 4 accurately ripped (confidence 93) [7C75B292] (AR v2)
Track 5 accurately ripped (confidence 93) [4F08F3B0] (AR v2)
Track 6 accurately ripped (confidence 93) [FDB48F0D] (AR v2)
Track 7 accurately ripped (confidence 93) [DEED7B98] (AR v2)
Track 8 accurately ripped (confidence 92) [F759A09D] (AR v2)
Track 9 accurately ripped (confidence 92) [3A736347] (AR v2)
Track 10 accurately ripped (confidence 93) [C4A0F494] (AR v2)
Track 11 accurately ripped (confidence 93) [56440A4E] (AR v2)
Track 12 accurately ripped (confidence 93) [20851E54] (AR v2)
Track 13 accurately ripped (confidence 93) [497E4E7E] (AR v2)
Track 14 accurately ripped (confidence 93) [0B5335B6] (AR v2)
Track 15 accurately ripped (confidence 92) [34AEDBDD] (AR v2)
Track 16 accurately ripped (confidence 93) [3CAB36F8] (AR v2)
Track 17 accurately ripped (confidence 92) [C2D91A76] (AR v2)
Track 18 accurately ripped (confidence 91) [410319C2] (AR v2)
Track 19 accurately ripped (confidence 92) [75B0E4FB] (AR v2)
Track 20 accurately ripped (confidence 91) [072D7D7F] (AR v2)
Track 21 accurately ripped (confidence 91) [5284C211] (AR v2)
Track 22 accurately ripped (confidence 90) [E4E33DB1] (AR v2)
Track 23 accurately ripped (confidence 90) [D9478234] (AR v2)
Track 24 accurately ripped (confidence 92) [42BD9E14] (AR v2)
Track 25 accurately ripped (confidence 89) [DDFE3955] (AR v2)

All tracks accurately ripped

End of status report

–– CUETools DB Plugin V2.1.6

[CTDB TOCID: p2ma3rFOaCF69H5pZ7ZnN3CoUPY-] found
Submit result: p2ma3rFOaCF69H5pZ7ZnN3CoUPY- has been confirmed
Track | CTDB Status
1 | (106/106) Accurately ripped
2 | (106/106) Accurately ripped
3 | (106/106) Accurately ripped
4 | (106/106) Accurately ripped
5 | (106/106) Accurately ripped
6 | (106/106) Accurately ripped
7 | (106/106) Accurately ripped
8 | (106/106) Accurately ripped
9 | (106/106) Accurately ripped
10 | (106/106) Accurately ripped
11 | (106/106) Accurately ripped
12 | (106/106) Accurately ripped
13 | (106/106) Accurately ripped
14 | (106/106) Accurately ripped
15 | (106/106) Accurately ripped
16 | (106/106) Accurately ripped
17 | (105/106) Accurately ripped
18 | (106/106) Accurately ripped
19 | (106/106) Accurately ripped
20 | (106/106) Accurately ripped
21 | (106/106) Accurately ripped
22 | (106/106) Accurately ripped
23 | (106/106) Accurately ripped
24 | (106/106) Accurately ripped
25 | (106/106) Accurately ripped

[CUETools log; Date: 02.10.2016 9:22:05; Version: 2.1.5]
[CTDB TOCID: p2ma3rFOaCF69H5pZ7ZnN3CoUPY-] found.
Track | CTDB Status
1 | (107/107) Accurately ripped
2 | (107/107) Accurately ripped
3 | (107/107) Accurately ripped
4 | (107/107) Accurately ripped
5 | (107/107) Accurately ripped
6 | (107/107) Accurately ripped
7 | (107/107) Accurately ripped
8 | (107/107) Accurately ripped
9 | (107/107) Accurately ripped
10 | (107/107) Accurately ripped
11 | (107/107) Accurately ripped
12 | (107/107) Accurately ripped
13 | (107/107) Accurately ripped
14 | (107/107) Accurately ripped
15 | (107/107) Accurately ripped
16 | (107/107) Accurately ripped
17 | (106/107) Accurately ripped
18 | (107/107) Accurately ripped
19 | (107/107) Accurately ripped
20 | (107/107) Accurately ripped
21 | (107/107) Accurately ripped
22 | (107/107) Accurately ripped
23 | (107/107) Accurately ripped
24 | (107/107) Accurately ripped
25 | (107/107) Accurately ripped
[AccurateRip ID: 00452071-04ddd50e-59123a19] found.
Track [ CRC | V2 ] Status
01 [7b10b930|55e0616a] (054+093/149) Accurately ripped
02 [9fdcd0f8|774d9eb1] (054+093/149) Accurately ripped
03 [196f95db|2b84aa1e] (055+092/149) Accurately ripped
04 [d34361f7|7c75b292] (055+093/150) Accurately ripped
05 [4cdd9933|4f08f3b0] (055+093/150) Accurately ripped
06 [7b976d2e|fdb48f0d] (055+093/150) Accurately ripped
07 [f597211c|deed7b98] (055+093/150) Accurately ripped
08 [192f83fe|f759a09d] (055+092/149) Accurately ripped
09 [20f561f0|3a736347] (055+092/149) Accurately ripped
10 [dddb7c16|c4a0f494] (055+093/150) Accurately ripped
11 [8e02b0dd|56440a4e] (055+093/150) Accurately ripped
12 [b78c9070|20851e54] (055+093/150) Accurately ripped
13 [58156560|497e4e7e] (055+093/150) Accurately ripped
14 [7ce9a2a7|0b5335b6] (055+093/150) Accurately ripped
15 [1ee7e074|34aedbdd] (055+092/149) Accurately ripped
16 [43c252cb|3cab36f8] (055+093/150) Accurately ripped
17 [0b7bb8df|c2d91a76] (055+092/149) Accurately ripped
18 [6372f3b5|410319c2] (055+091/148) Accurately ripped
19 [d44b43f1|75b0e4fb] (055+092/149) Accurately ripped
20 [909a300f|072d7d7f] (055+091/148) Accurately ripped
21 [376d1cc8|5284c211] (055+091/148) Accurately ripped
22 [72e74b5b|e4e33db1] (055+090/147) Accurately ripped
23 [f71ce399|d9478234] (055+090/147) Accurately ripped
24 [0d25f626|42bd9e14] (055+092/149) Accurately ripped
25 [f713c22f|ddfe3955] (055+089/146) Accurately ripped
Offsetted by -30:
01 [0ce28f52] (000/149) No match (V2 was not tested)
02 [8f0be5a4] (000/149) No match (V2 was not tested)
03 [06fd1add] (000/149) No match (V2 was not tested)
04 [9fc3230b] (000/150) No match (V2 was not tested)
05 [443fd01d] (000/150) No match (V2 was not tested)
06 [e1140a66] (000/150) No match (V2 was not tested)
07 [1fd36c3a] (000/150) No match (V2 was not tested)
08 [acb42194] (000/149) No match (V2 was not tested)
09 [1a097aba] (000/149) No match (V2 was not tested)
10 [5b2edad6] (000/150) No match (V2 was not tested)
11 [4b0ca449] (000/150) No match (V2 was not tested)
12 [666028ba] (000/150) No match (V2 was not tested)
13 [e192bf20] (000/150) No match (V2 was not tested)
14 [76101205] (000/150) No match (V2 was not tested)
15 [758ca786] (000/149) No match (V2 was not tested)
16 [4f337401] (000/150) No match (V2 was not tested)
17 [f66ef85f] (000/149) No match (V2 was not tested)
18 [b5fe1563] (000/148) No match (V2 was not tested)
19 [3118d9cd] (000/149) No match (V2 was not tested)
20 [91027167] (000/148) No match (V2 was not tested)
21 [d5594424] (000/148) No match (V2 was not tested)
22 [be185967] (000/147) No match (V2 was not tested)
23 [726f48ed] (000/147) No match (V2 was not tested)
24 [45c25758] (000/149) No match (V2 was not tested)
25 [ff4ff599] (000/146) No match (V2 was not tested)
Offsetted by 6:
01 [c44d27f6] (000/149) No match (V2 was not tested)
02 [09a0333c] (000/149) No match (V2 was not tested)
03 [83867b41] (000/149) No match (V2 was not tested)
04 [7729d4f3] (000/150) No match (V2 was not tested)
05 [b4fd27d1] (000/150) No match (V2 was not tested)
06 [00e4e756] (000/150) No match (V2 was not tested)
07 [538b1216] (000/150) No match (V2 was not tested)
08 [2ee1cae0] (000/149) No match (V2 was not tested)
09 [ef24902e] (000/149) No match (V2 was not tested)
10 [91979c56] (000/150) No match (V2 was not tested)
11 [3500b361] (000/150) No match (V2 was not tested)
12 [c7c8a52e] (000/150) No match (V2 was not tested)
13 [d62f86a0] (000/150) No match (V2 was not tested)
14 [b17b8c61] (000/150) No match (V2 was not tested)
15 [73fa1f0a] (000/149) No match (V2 was not tested)
16 [74abb28d] (000/150) No match (V2 was not tested)
17 [7617df5f] (000/149) No match (V2 was not tested)
18 [ec8a535f] (000/148) No match (V2 was not tested)
19 [f4eef2c5] (000/149) No match (V2 was not tested)
20 [f6ebbc97] (000/148) No match (V2 was not tested)
21 [e4a4481c] (000/148) No match (V2 was not tested)
22 [63dd7bbf] (000/147) No match (V2 was not tested)
23 [de72cf55] (000/147) No match (V2 was not tested)
24 [cea0491c] (000/149) No match (V2 was not tested)
25 [f56e1e4d] (000/146) No match (V2 was not tested)

Track Peak [ CRC32 ] [W/O NULL] [ LOG ]
– 100,0 [015E59F0] [65B9A587] CRC32
01 100,0 [5189C713] [8F8B621A]
02 97,9 [2D476AC3] [808D7B4B]
03 100,0 [330F89B6] [EF7CDA84]
04 93,3 [59B05EDC] [181A38EB]
05 100,0 [3C52BA42] [CFC7F1E6]
06 100,0 [F1D55995] [B273BF9E]
07 100,0 [C0D19EEE] [839C6F6C]
08 100,0 [E349E3C9] [6B3B41AB]
09 94,4 [0D82A25E] [B5BECF15]
10 100,0 [097DA180] [0B1F27D4]
11 100,0 [46C163E2] [5E35985F]
12 100,0 [50D35475] [11220531]
13 100,0 [F6A29E38] [43A193E8]
14 100,0 [159F45E6] [E44A6621]
15 100,0 [F60FBE2F] [C70DF557]
16 100,0 [DB4E3C40] [45286EDB]
17 100,0 [640F0A5D] [E6FA737B]
18 100,0 [115BC184] [47B50C59]
19 89,1 [4D60D88D] [E0DE40CE]
20 100,0 [0D2C4293] [ED1D5F56]
21 100,0 [102913EB] [C74F77C5]
22 100,0 [07EA6B35] [3958FE89]
23 100,0 [976B03D9] [043EAAB5]
24 100,0 [961DDAFE] [F2950B3E]
25 96,0 [0109E01B] [45A8835F]

Track List DVD:

Going Back…The Home Movie
A Conversation With Phil Collins
Heatware Video
Going Back Video

DVD also contains 29 album Tracks in both high quality WAV format and MP3.

General
Complete name : I:\VIDEO_TS\VTS_01_1.VOB
Format : MPEG-PS
File size : 1 024 MiB
Duration : 22mn 11s
Overall bit rate mode : Variable
Overall bit rate : 6 449 Kbps

Video
ID : 224 (0xE0)
Format : MPEG Video
Format version : Version 2
Format profile : Main@Main
Format settings, BVOP : Yes
Format settings, Matrix : Custom
Format settings, GOP : M=3, N=12
Format settings, picture structure : Frame
Duration : 22mn 11s
Bit rate mode : Variable
Bit rate : 6 097 Kbps
Maximum bit rate : 9 800 Kbps
Width : 720 pixels
Height : 480 pixels
Display aspect ratio : 4:3
Frame rate : 29.970 fps
Standard : NTSC
Color space : YUV
Chroma subsampling : 4:2:0
Bit depth : 8 bits
Scan type : Interlaced
Scan order : Top Field First
Compression mode : Lossy
Bits/(Pixel*Frame) : 0.589
Time code of first frame : 01:00:00;05
Time code source : Group of pictures header
GOP, Open/Closed : Open
Stream size : 968 MiB (95%)
GOP, Open/Closed of first frame : Closed

Audio
ID : 189 (0xBD)-128 (0x80)
Format : AC-3
Format/Info : Audio Coding 3
Mode extension : CM (complete main)
Format settings, Endianness : Big
Muxing mode : DVD-Video
Duration : 22mn 11s
Bit rate mode : Constant
Bit rate : 224 Kbps
Channel(s) : 2 channels
Channel positions : Front: L R
Sampling rate : 48.0 KHz
Bit depth : 16 bits
Compression mode : Lossy
Stream size : 35.6 MiB (3%)

Text #1
ID : 189 (0xBD)-32 (0x20)
Format : RLE
Format/Info : Run-length encoding
Muxing mode : DVD-Video
Delay relative to video : 300ms

Text #2
ID : 189 (0xBD)-33 (0x21)
Format : RLE
Format/Info : Run-length encoding
Muxing mode : DVD-Video
Delay relative to video : 300ms

Text #3
ID : 189 (0xBD)-34 (0x22)
Format : RLE
Format/Info : Run-length encoding
Muxing mode : DVD-Video
Delay relative to video : 300ms

Text #4
ID : 189 (0xBD)-35 (0x23)
Format : RLE
Format/Info : Run-length encoding
Muxing mode : DVD-Video
Delay relative to video : 300ms

Text #5
ID : 189 (0xBD)-36 (0x24)
Format : RLE
Format/Info : Run-length encoding
Muxing mode : DVD-Video
Delay relative to video : 300ms

Text #6
ID : 189 (0xBD)-37 (0x25)
Format : RLE
Format/Info : Run-length encoding
Muxing mode : DVD-Video
Delay relative to video : 300ms

Menu

General
Complete name : I:\VIDEO_TS\VTS_01_2.VOB
Format : MPEG-PS
File size : 1 024 MiB
Duration : 22mn 50s
Overall bit rate mode : Variable
Overall bit rate : 6 265 Kbps

Video
ID : 224 (0xE0)
Format : MPEG Video
Format version : Version 2
Format profile : Main@Main
Format settings, BVOP : Yes
Format settings, Matrix : Custom
Format settings, GOP : M=3, N=12
Format settings, picture structure : Frame
Duration : 22mn 50s
Bit rate mode : Variable
Bit rate : 5 917 Kbps
Maximum bit rate : 9 800 Kbps
Width : 720 pixels
Height : 480 pixels
Display aspect ratio : 4:3
Frame rate : 29.970 fps
Standard : NTSC
Color space : YUV
Chroma subsampling : 4:2:0
Bit depth : 8 bits
Scan type : Interlaced
Scan order : Top Field First
Compression mode : Lossy
Bits/(Pixel*Frame) : 0.571
Time code of first frame : 01:22:11;25
Time code source : Group of pictures header
GOP, Open/Closed : Open
Stream size : 967 MiB (94%)

Audio
ID : 189 (0xBD)-128 (0x80)
Format : AC-3
Format/Info : Audio Coding 3
Mode extension : CM (complete main)
Format settings, Endianness : Big
Muxing mode : DVD-Video
Duration : 22mn 50s
Bit rate mode : Constant
Bit rate : 224 Kbps
Channel(s) : 2 channels
Channel positions : Front: L R
Sampling rate : 48.0 KHz
Bit depth : 16 bits
Compression mode : Lossy
Delay relative to video : -210ms
Stream size : 36.6 MiB (4%)

Text #1
ID : 189 (0xBD)-32 (0x20)
Format : RLE
Format/Info : Run-length encoding
Muxing mode : DVD-Video
Delay relative to video : -33ms

Text #2
ID : 189 (0xBD)-33 (0x21)
Format : RLE
Format/Info : Run-length encoding
Muxing mode : DVD-Video
Delay relative to video : -33ms

Text #3
ID : 189 (0xBD)-34 (0x22)
Format : RLE
Format/Info : Run-length encoding
Muxing mode : DVD-Video
Delay relative to video : -33ms

Text #4
ID : 189 (0xBD)-35 (0x23)
Format : RLE
Format/Info : Run-length encoding
Muxing mode : DVD-Video
Delay relative to video : -33ms

Text #5
ID : 189 (0xBD)-36 (0x24)
Format : RLE
Format/Info : Run-length encoding
Muxing mode : DVD-Video
Delay relative to video : -33ms

Text #6
ID : 189 (0xBD)-37 (0x25)
Format : RLE
Format/Info : Run-length encoding
Muxing mode : DVD-Video
Delay relative to video : -33ms

Menu

General
Complete name : I:\VIDEO_TS\VTS_01_3.VOB
Format : MPEG-PS
File size : 1 024 MiB
Duration : 23mn 21s
Overall bit rate mode : Variable
Overall bit rate : 6 128 Kbps

Video
ID : 224 (0xE0)
Format : MPEG Video
Format version : Version 2
Format profile : Main@Main
Format settings, BVOP : Yes
Format settings, Matrix : Custom
Format settings, GOP : M=3, N=12
Format settings, picture structure : Frame
Duration : 23mn 21s
Bit rate mode : Variable
Bit rate : 5 782 Kbps
Maximum bit rate : 9 800 Kbps
Width : 720 pixels
Height : 480 pixels
Display aspect ratio : 4:3
Frame rate : 29.970 fps
Standard : NTSC
Color space : YUV
Chroma subsampling : 4:2:0
Bit depth : 8 bits
Scan type : Interlaced
Scan order : Top Field First
Compression mode : Lossy
Bits/(Pixel*Frame) : 0.558
Time code of first frame : 01:45:02;17
Time code source : Group of pictures header
GOP, Open/Closed : Open
Stream size : 966 MiB (94%)

Audio
ID : 189 (0xBD)-128 (0x80)
Format : AC-3
Format/Info : Audio Coding 3
Mode extension : CM (complete main)
Format settings, Endianness : Big
Muxing mode : DVD-Video
Duration : 23mn 21s
Bit rate mode : Constant
Bit rate : 224 Kbps
Channel(s) : 2 channels
Channel positions : Front: L R
Sampling rate : 48.0 KHz
Bit depth : 16 bits
Compression mode : Lossy
Delay relative to video : -193ms
Stream size : 37.4 MiB (4%)

Text #1
ID : 189 (0xBD)-32 (0x20)
Format : RLE
Format/Info : Run-length encoding
Muxing mode : DVD-Video

Text #2
ID : 189 (0xBD)-33 (0x21)
Format : RLE
Format/Info : Run-length encoding
Muxing mode : DVD-Video

Text #3
ID : 189 (0xBD)-34 (0x22)
Format : RLE
Format/Info : Run-length encoding
Muxing mode : DVD-Video

Text #4
ID : 189 (0xBD)-35 (0x23)
Format : RLE
Format/Info : Run-length encoding
Muxing mode : DVD-Video

Text #5
ID : 189 (0xBD)-36 (0x24)
Format : RLE
Format/Info : Run-length encoding
Muxing mode : DVD-Video

Text #6
ID : 189 (0xBD)-37 (0x25)
Format : RLE
Format/Info : Run-length encoding
Muxing mode : DVD-Video

Menu

General
Complete name : I:\VIDEO_TS\VTS_01_4.VOB
Format : MPEG-PS
File size : 802 MiB
Overall bit rate mode : Variable

Video
ID : 224 (0xE0)
Format : MPEG Video
Format version : Version 2
Format profile : Main@Main
Format settings, BVOP : Yes
Format settings, Matrix : Custom
Format settings, GOP : Variable
Format settings, picture structure : Frame
Bit rate mode : Variable
Maximum bit rate : 9 800 Kbps
Width : 720 pixels
Height : 480 pixels
Display aspect ratio : 4:3
Frame rate : 29.970 fps
Standard : NTSC
Color space : YUV
Chroma subsampling : 4:2:0
Bit depth : 8 bits
Scan type : Interlaced
Scan order : Top Field First
Compression mode : Lossy
Time code of first frame : 02:08:24;03
Time code source : Group of pictures header
GOP, Open/Closed : Open

Audio
ID : 189 (0xBD)-128 (0x80)
Format : AC-3
Format/Info : Audio Coding 3
Mode extension : CM (complete main)
Format settings, Endianness : Big
Muxing mode : DVD-Video
Bit rate mode : Constant
Bit rate : 224 Kbps
Channel(s) : 2 channels
Channel positions : Front: L R
Sampling rate : 48.0 KHz
Bit depth : 16 bits
Compression mode : Lossy
Delay relative to video : -190ms

Text #1
ID : 189 (0xBD)-32 (0x20)
Format : RLE
Format/Info : Run-length encoding
Muxing mode : DVD-Video
Delay relative to video : 1s 902ms

Text #2
ID : 189 (0xBD)-33 (0x21)
Format : RLE
Format/Info : Run-length encoding
Muxing mode : DVD-Video
Delay relative to video : 1s 902ms

Text #3
ID : 189 (0xBD)-34 (0x22)
Format : RLE
Format/Info : Run-length encoding
Muxing mode : DVD-Video
Delay relative to video : 1s 902ms

Text #4
ID : 189 (0xBD)-35 (0x23)
Format : RLE
Format/Info : Run-length encoding
Muxing mode : DVD-Video
Delay relative to video : 1s 902ms

Text #5
ID : 189 (0xBD)-36 (0x24)
Format : RLE
Format/Info : Run-length encoding
Muxing mode : DVD-Video
Delay relative to video : 1s 902ms

Text #6
ID : 189 (0xBD)-37 (0x25)
Format : RLE
Format/Info : Run-length encoding
Muxing mode : DVD-Video
Delay relative to video : 1s 902ms

General
Complete name : I:\VIDEO_TS\VTS_02_1.VOB
Format : MPEG-PS
File size : 1 024 MiB
Duration : 4mn 35s
Overall bit rate : 31.2 Mbps

Video
ID : 224 (0xE0)
Format : MPEG Video
Format version : Version 2
Format profile : Main@Main
Format settings, BVOP : No
Format settings, Matrix : Custom
Duration : 4mn 35s
Bit rate : 29.0 Mbps
Maximum bit rate : 8 000 Kbps
Width : 720 pixels
Height : 480 pixels
Display aspect ratio : 16:9
Frame rate : 29.970 fps
Standard : NTSC
Color space : YUV
Chroma subsampling : 4:2:0
Bit depth : 8 bits
Scan type : Progressive
Scan order : Top Field First
Compression mode : Lossy
Bits/(Pixel*Frame) : 2.802
Time code of first frame : 00:00:00:00
Time code source : Group of pictures header
Stream size : 953 MiB (93%)

Audio
ID : 189 (0xBD)-160 (0xA0)
Format : PCM
Format settings, Endianness : Big
Format settings, Sign : Signed
Muxing mode : DVD-Video
Duration : 4mn 35s
Bit rate mode : Constant
Bit rate : 1 536 Kbps
Channel(s) : 2 channels
Sampling rate : 48.0 KHz
Bit depth : 16 bits
Stream size : 50.4 MiB (5%)

Menu

General
Complete name : I:\VIDEO_TS\VTS_02_2.VOB
Format : MPEG-PS
File size : 166 KiB
Duration : 845ms
Overall bit rate mode : Constant
Overall bit rate : 1 609 Kbps

Audio
ID : 189 (0xBD)-160 (0xA0)
Format : PCM
Format settings, Endianness : Big
Format settings, Sign : Signed
Muxing mode : DVD-Video
Duration : 845ms
Bit rate mode : Constant
Bit rate : 1 536 Kbps
Channel(s) : 2 channels
Sampling rate : 48.0 KHz
Bit depth : 16 bits
Stream size : 158 KiB (95%)

Menu

General
Complete name : I:\VIDEO_TS\VTS_03_0.BUP
Format : DVD Video
Format profile : Program
File size : 20.0 KiB
Duration : 4mn 8s
Overall bit rate mode : Variable
Overall bit rate : 661 bps

Video
ID : 224 (0xE0)
Format : MPEG Video
Format version : Version 2
Duration : 4mn 8s
Bit rate mode : Variable
Width : 720 pixels
Height : 480 pixels
Display aspect ratio : 16:9
Frame rate : 29.970 fps
Standard : NTSC
Compression mode : Lossy

Audio
ID : 128 (0x80)
Format : AC-3
Format/Info : Audio Coding 3
Duration : 4mn 8s
Channel(s) : 2 channels
Sampling rate : 48.0 KHz
Compression mode : Lossy
Language : English

Menu #1
Duration : 4mn 8s
00:00:00.000 : Chapter 1
List (Audio) : 0

Menu #2
Duration : 2mn 49s
00:00:00.000 : Chapter 1
List (Audio) : 0

Menu #3

General
Complete name : I:\VIDEO_TS\VTS_03_0.IFO
Format : DVD Video
Format profile : Program
File size : 20.0 KiB
Duration : 4mn 8s
Overall bit rate mode : Variable
Overall bit rate : 661 bps

Video
ID : 224 (0xE0)
Format : MPEG Video
Format version : Version 2
Duration : 4mn 8s
Bit rate mode : Variable
Width : 720 pixels
Height : 480 pixels
Display aspect ratio : 16:9
Frame rate : 29.970 fps
Standard : NTSC
Compression mode : Lossy

Audio
ID : 128 (0x80)
Format : AC-3
Format/Info : Audio Coding 3
Duration : 4mn 8s
Channel(s) : 2 channels
Sampling rate : 48.0 KHz
Compression mode : Lossy
Language : English

Menu #1
Duration : 4mn 8s
00:00:00.000 : Chapter 1
List (Audio) : 0

Menu #2
Duration : 2mn 49s
00:00:00.000 : Chapter 1
List (Audio) : 0

General
Complete name : I:\VIDEO_TS\VTS_04_1.VOB
Format : MPEG-PS
File size : 851 MiB
Duration : 22mn 2s
Overall bit rate mode : Variable
Overall bit rate : 5 397 Kbps

Video
ID : 224 (0xE0)
Format : MPEG Video
Format version : Version 2
Format profile : Main@Main
Format settings, BVOP : Yes
Format settings, Matrix : Custom
Format settings, GOP : Variable
Format settings, picture structure : Frame
Duration : 22mn 2s
Bit rate mode : Variable
Bit rate : 5 066 Kbps
Maximum bit rate : 9 800 Kbps
Width : 720 pixels
Height : 480 pixels
Display aspect ratio : 16:9
Frame rate : 29.970 fps
Standard : NTSC
Color space : YUV
Chroma subsampling : 4:2:0
Bit depth : 8 bits
Scan type : Interlaced
Scan order : Top Field First
Compression mode : Lossy
Bits/(Pixel*Frame) : 0.489
Time code of first frame : 00:59:59;00
Time code source : Group of pictures header
GOP, Open/Closed : Open
Stream size : 798 MiB (94%)
GOP, Open/Closed of first frame : Closed

Audio
ID : 189 (0xBD)-128 (0x80)
Format : AC-3
Format/Info : Audio Coding 3
Mode extension : CM (complete main)
Format settings, Endianness : Big
Muxing mode : DVD-Video
Duration : 22mn 2s
Bit rate mode : Constant
Bit rate : 224 Kbps
Channel(s) : 2 channels
Channel positions : Front: L R
Sampling rate : 48.0 KHz
Bit depth : 16 bits
Compression mode : Lossy
Stream size : 35.3 MiB (4%)

Phil Collins - Going Back (2010) {CD/DVD, Exclusive Limited Edition}

Phil Collins - Going Back (2010) {CD/DVD, Exclusive Limited Edition}

Phil Collins - Going Back (2010) {CD/DVD, Exclusive Limited Edition}

Phil Collins - Going Back (2010) {CD/DVD, Exclusive Limited Edition}

Phil Collins - Going Back (2010) {CD/DVD, Exclusive Limited Edition}

Phil Collins - Going Back (2010) {CD/DVD, Exclusive Limited Edition}

Phil Collins - Going Back (2010) {CD/DVD, Exclusive Limited Edition}

Phil Collins - Going Back (2010) {CD/DVD, Exclusive Limited Edition}

Phil Collins - Going Back (2010) {CD/DVD, Exclusive Limited Edition}

Phil Collins - Going Back (2010) {CD/DVD, Exclusive Limited Edition}

All thanks go to sergych

>>> Phil Collins in my Blog <<<

DOWNLOAD: