Subcategories
Tags
Language
Tags

Phil Collins: Singles Collection part 4 (1998 - 2003) Re-up

Posted By: v3122
Phil Collins: Singles Collection part 4 (1998 - 2003) Re-up

Phil Collins: Singles Collection part 4 (1998 - 2003)
EAC | Flac(Image) + Cue + Log & MP3 CBR 320Kbps
7CD | Label: Vatious | ~ 567 or 246 Mb | Scans(jpg) -> 73 Mb
Pop Rock, Prog Rock

Philip David Charles Collins LVO (born 30 January 1951) is an English drummer, singer-songwriter, record producer and actor. He was the drummer and singer of the rock band Genesis and is also a solo artist. Between 1982 and 1989, Collins scored three UK and seven US number-one singles in his solo career. When his work with Genesis, his work with other artists, as well as his solo career is totalled, Collins had more US Top 40 singles than any other artist during the 1980s.[9] His most successful singles from the period include "In the Air Tonight", "Against All Odds (Take a Look at Me Now)", "One More Night", "Sussudio", "Two Hearts" and "Another Day in Paradise".

Born and raised in west London, Collins played drums from the age of five and completed drama school training, which secured him various roles as a child actor. He then pursued a music career, joining Genesis in 1970 as their drummer and becoming lead singer in 1975 following the departure of Peter Gabriel. Collins began a solo career in the 1980s, initially inspired by his marital breakdown and love of soul music, releasing a series of successful albums, including Face Value (1981), No Jacket Required (1985), and …But Seriously (1989). Collins became "one of the most successful pop and adult contemporary singers of the '80s and beyond". He also became known for a distinctive gated reverb drum sound on many of his recordings.[10] In 1996, Collins left Genesis to focus on solo work, but returned for their Turn It On Again Tour in 2007. Following a five-year retirement to focus on his family life, Collins released an autobiography and began his Not Dead Yet Tour which ran from June 2017 until October 2018.

Collins's discography includes eight studio albums that have sold 33.5 million certified units in the US and an estimated 150 million worldwide, making him one of the world's best-selling artists. He is one of only two recording artists, along with Paul McCartney, who have sold over 100 million records worldwide both as solo artists and separately as principal members of a band. He has won eight Grammy Awards, six Brit Awards—winning Best British Male three times—two Golden Globe Awards, one Academy Award, and a Disney Legend Award.[16] He has received six Ivor Novello Awards from the British Academy of Songwriters, Composers and Authors, including the International Achievement Award. He received a star on the Hollywood Walk of Fame in 1999, and was inducted into the Songwriters Hall of Fame in 2003, the Rock and Roll Hall of Fame as a member of Genesis in 2010, the Modern Drummer Hall of Fame in 2012, and the Classic Drummer Hall of Fame in 2013. Despite his commercial success and his status as a respected and influential drummer, music critics are divided in their opinion of his work and he has publicly received both criticism and praise from other prominent music artists…

~ wiki
Phil Collins: Singles Collection part 4 (1998 - 2003) Re-up


Phil Collins: Singles Collection part 4 (1998 - 2003):

Phil Collins: Singles Collection part 4 (1998 - 2003) Re-up

Tracklist CD01 - 1998 - True Colors:Repost
WEA, 3984 24774-2

01. True Colors (Album Version) [0:04:36.49]
02. In The Air Tonight (Extended Version) [0:07:35.30]
03. Don't Lose My Number (Album Version) [0:04:49.53]
04. I Missed Again (Album Version) [0:03:33.06]

Exact Audio Copy V0.99 prebeta 5 from 4. May 2009

EAC extraction logfile from 20. January 2010, 10:13

Phil Collins / True Colors

Used drive : HL-DT-STDVDRAM_GSA-T20N Adapter: 0 ID: 0

Read mode : Secure
Utilize accurate stream : Yes
Defeat audio cache : Yes
Make use of C2 pointers : No

Read offset correction : 667
Overread into Lead-In and Lead-Out : No
Fill up missing offset samples with silence : Yes
Delete leading and trailing silent blocks : No
Null samples used in CRC calculations : Yes
Used interface : Native Win32 interface for Win NT & 2000

Used output format : User Defined Encoder
Selected bitrate : 768 kBit/s
Quality : High
Add ID3 tag : No
Command line compressor : C:\Program Files\Exact Audio Copy\Flac\flac.exe
Additional command line options : -6 -V -T "ARTIST=%a" -T "TITLE=%t" -T "ALBUM=%g" -T "DATE=%y" -T "TRACKNUMBER=%n" -T "GENRE=%m" -T "COMMENT=%e" %s -o %d


TOC of the extracted CD

Track | Start | Length | Start sector | End sector
––––––––––––––––––––––––––––-
1 | 0:00.00 | 4:36.37 | 0 | 20736
2 | 4:36.37 | 7:35.23 | 20737 | 54884
3 | 12:11.60 | 4:49.40 | 54885 | 76599
4 | 17:01.25 | 3:33.05 | 76600 | 92579


Range status and errors

Selected range

Filename D:\Music\Phil Collins - True Colors.wav

Peak level 99.4 %
Range quality 100.0 %
Test CRC A5407230
Copy CRC A5407230
Copy OK

No errors occurred


AccurateRip summary

Track 1 accurately ripped (confidence 5) [65D441D0]
Track 2 accurately ripped (confidence 5) [4FDE36A6]
Track 3 accurately ripped (confidence 5) [2164D507]
Track 4 accurately ripped (confidence 5) [237822C2]

All tracks accurately ripped

End of status report


[CUETools log; Date: 26.06.2018 22:09:13; Version: 2.1.5]
[CTDB TOCID: C59fg1ESSIt__hdVnNdYIFDjzTQ-] found.
Track | CTDB Status
1 | (28/28) Accurately ripped
2 | (28/28) Accurately ripped
3 | (28/28) Accurately ripped
4 | (28/28) Accurately ripped
[AccurateRip ID: 0003bc42-000ee246-2604d204] found.
Track [ CRC | V2 ] Status
01 [65d441d0|4b9fc03a] (13+10/23) Accurately ripped
02 [4fde36a6|b83f29c4] (13+10/23) Accurately ripped
03 [2164d507|7bbe562e] (13+09/22) Accurately ripped
04 [237822c2|47ec5bc3] (13+09/22) Accurately ripped

Track Peak [ CRC32 ] [W/O NULL] [ LOG ]
– 99,4 [A5407230] [BCF18111] CRC32
01 98,5 [65B29339] [44AEFFEE]
02 99,1 [7CE008DD] [D7AD09E8]
03 99,4 [71691E83] [2364F217]
04 98,7 [E6FB8EA9] [491B5215]


Phil Collins: Singles Collection part 4 (1998 - 2003) Re-up

Tracklist CD02 - 1999 - Son of Man:Repost
Edel / Walt Disney Records, 0107495DNY

01. Son of Man [0:02:46.44]
02. Dir gehört mein Herz [0:01:39.70]
03. En mi corazón estarás [0:01:39.04]
04. Sei debtro me [0:01:38.04]

Exact Audio Copy V0.99 prebeta 5 from 4. May 2009

EAC extraction logfile from 22. January 2010, 18:09

Phil Collins / Son of Man

Used drive : HL-DT-STDVDRAM_GSA-T20N Adapter: 0 ID: 0

Read mode : Secure
Utilize accurate stream : Yes
Defeat audio cache : Yes
Make use of C2 pointers : No

Read offset correction : 667
Overread into Lead-In and Lead-Out : No
Fill up missing offset samples with silence : Yes
Delete leading and trailing silent blocks : No
Null samples used in CRC calculations : Yes
Used interface : Installed external ASPI interface

Used output format : User Defined Encoder
Selected bitrate : 768 kBit/s
Quality : High
Add ID3 tag : No
Command line compressor : C:\Program Files\Exact Audio Copy\Flac\flac.exe
Additional command line options : -8 -V %s


TOC of the extracted CD

Track | Start | Length | Start sector | End sector
––––––––––––––––––––––––––––-
1 | 0:00.00 | 2:46.33 | 0 | 12482
2 | 2:46.33 | 1:39.53 | 12483 | 19960
3 | 4:26.11 | 1:39.03 | 19961 | 27388
4 | 6:05.14 | 1:38.03 | 27389 | 34741


Range status and errors

Selected range

Filename C:\Music\Phil Collins - Son of Man.wav

Peak level 98.9 %
Range quality 99.9 %
Test CRC D0F8AF0F
Copy CRC D0F8AF0F
Copy OK

No errors occurred


AccurateRip summary

Track 1 not present in database
Track 2 not present in database
Track 3 not present in database
Track 4 not present in database

None of the tracks are present in the AccurateRip database

End of status report


[CUETools log; Date: 26.06.2018 22:09:36; Version: 2.1.5]
HDCD: peak extend: none, transient filter: some, gain: none
[CTDB TOCID: d6EY2.VNUk.gaQskPo.bX_qO6RI-] found.
Track | CTDB Status
1 | (14/14) Accurately ripped
2 | (14/14) Accurately ripped
3 | (14/14) Accurately ripped
4 | (14/14) Accurately ripped
[AccurateRip ID: 0001716f-00059df4-3101cf04] found.
Track [ CRC | V2 ] Status
01 [dda6328e|c36b3ba6] (0+9/9) Accurately ripped
02 [fdb1347e|1fc4939c] (0+9/9) Accurately ripped
03 [0a1c9b84|6938bf28] (0+9/9) Accurately ripped
04 [0105c251|a26b6695] (0+9/9) Accurately ripped

Track Peak [ CRC32 ] [W/O NULL] [ LOG ]
– 98,9 [D0F8AF0F] [6B703D24] CRC32
01 98,9 [F6BDF03C] [368CC68E]
02 93,2 [574B6831] [C8BCB53B]
03 83,7 [B104B9D5] [DC7AE1C7]
04 97,7 [F6DD1EFE] [4024C2AD]


Phil Collins: Singles Collection part 4 (1998 - 2003) Re-up

Tracklist CD03 - 1999 - Strangers Like Me:Repost
Edel / Walt Disney Records, 0105305DNY

01. Strangers Like Me (Top 40 Mix) [0:03:00.85]
02. Strangers Like Me (A/C Mix) [0:03:00.82]
03. Fremde Wie Ich [0:03:01.09]

Exact Audio Copy V0.99 prebeta 5 from 4. May 2009

EAC extraction logfile from 21. January 2010, 10:22

Phil Collins / Strangers Like Me

Used drive : HL-DT-STDVDRAM_GSA-T20N Adapter: 0 ID: 0

Read mode : Secure
Utilize accurate stream : Yes
Defeat audio cache : Yes
Make use of C2 pointers : No

Read offset correction : 667
Overread into Lead-In and Lead-Out : No
Fill up missing offset samples with silence : Yes
Delete leading and trailing silent blocks : No
Null samples used in CRC calculations : Yes
Used interface : Native Win32 interface for Win NT & 2000

Used output format : User Defined Encoder
Selected bitrate : 768 kBit/s
Quality : High
Add ID3 tag : No
Command line compressor : C:\Program Files\Exact Audio Copy\Flac\flac.exe
Additional command line options : -6 -V -T "ARTIST=%a" -T "TITLE=%t" -T "ALBUM=%g" -T "DATE=%y" -T "TRACKNUMBER=%n" -T "GENRE=%m" -T "COMMENT=%e" %s -o %d


TOC of the extracted CD

Track | Start | Length | Start sector | End sector
––––––––––––––––––––––––––––-
1 | 0:00.00 | 3:00.64 | 0 | 13563
2 | 3:00.64 | 3:00.62 | 13564 | 27125
3 | 6:01.51 | 3:01.07 | 27126 | 40707


Range status and errors

Selected range

Filename D:\Music\Phil Collins - Singles Collection\Phil Collins - Strangers Like Me.wav

Peak level 99.4 %
Range quality 100.0 %
Test CRC 8DC8F7C7
Copy CRC 8DC8F7C7
Copy OK

No errors occurred


AccurateRip summary

Track 1 accurately ripped (confidence 4) [AA6EC295]
Track 2 accurately ripped (confidence 4) [0411E831]
Track 3 accurately ripped (confidence 4) [63B2F90C]

All tracks accurately ripped

End of status report


[CUETools log; Date: 26.06.2018 22:09:56; Version: 2.1.5]
HDCD: peak extend: none, transient filter: some, gain: none
[CTDB TOCID: 7APS1BrVVDecVJFD0aUtqAHVMK0-] found.
Track | CTDB Status
1 | (26/26) Accurately ripped
2 | (26/26) Accurately ripped
3 | (26/26) Accurately ripped
[AccurateRip ID: 00013df6-000423eb-19021e03] found.
Track [ CRC | V2 ] Status
01 [aa6ec295|b51f22e0] (10+13/23) Accurately ripped
02 [0411e831|a2733a90] (10+13/23) Accurately ripped
03 [63b2f90c|e0ea2a0d] (10+13/23) Accurately ripped

Track Peak [ CRC32 ] [W/O NULL] [ LOG ]
– 99,4 [8DC8F7C7] [66E1EF4A] CRC32
01 98,9 [C6E2E7EB] [773A0D6F]
02 98,9 [DF16ADD5] [2D21FC83]
03 99,4 [B802D8D6] [C94E5AF4]


Phil Collins: Singles Collection part 4 (1998 - 2003) Re-up

Tracklist CD04 - 1999 - You'll Be In My Heart:Repost
Edel / Walt Disney Records, 0100735DNY

01. You'll Be in My Heart (Phil Version) [0:04:18.13]
02. You'll Be in My Heart [0:01:36.53]
03. Trashin' The Camp [0:02:16.62]

Exact Audio Copy V0.99 prebeta 5 from 4. May 2009

EAC extraction logfile from 21. January 2010, 10:11

Phil Collins / You'll Be In My Heart

Used drive : HL-DT-STDVDRAM_GSA-T20N Adapter: 0 ID: 0

Read mode : Secure
Utilize accurate stream : Yes
Defeat audio cache : Yes
Make use of C2 pointers : No

Read offset correction : 667
Overread into Lead-In and Lead-Out : No
Fill up missing offset samples with silence : Yes
Delete leading and trailing silent blocks : No
Null samples used in CRC calculations : Yes
Used interface : Native Win32 interface for Win NT & 2000

Used output format : User Defined Encoder
Selected bitrate : 768 kBit/s
Quality : High
Add ID3 tag : No
Command line compressor : C:\Program Files\Exact Audio Copy\Flac\flac.exe
Additional command line options : -6 -V -T "ARTIST=%a" -T "TITLE=%t" -T "ALBUM=%g" -T "DATE=%y" -T "TRACKNUMBER=%n" -T "GENRE=%m" -T "COMMENT=%e" %s -o %d


TOC of the extracted CD

Track | Start | Length | Start sector | End sector
––––––––––––––––––––––––––––-
1 | 0:00.00 | 4:18.10 | 0 | 19359
2 | 4:18.10 | 1:36.40 | 19360 | 26599
3 | 5:54.50 | 2:16.47 | 26600 | 36846


Range status and errors

Selected range

Filename D:\Music\Phil Collins - Singles Collection\Phil Collins - You'll Be In My Heart.wav

Peak level 98.8 %
Range quality 100.0 %
Test CRC 4E6AA7B5
Copy CRC 4E6AA7B5
Copy OK

No errors occurred


AccurateRip summary

Track 1 accurately ripped (confidence 2) [04470FE1]
Track 2 accurately ripped (confidence 2) [7E9E3DD3]
Track 3 accurately ripped (confidence 2) [EA9A4FBF]

All tracks accurately ripped

End of status report


[CUETools log; Date: 26.06.2018 22:10:20; Version: 2.1.5]
HDCD: peak extend: none, transient filter: none, gain: none
[CTDB TOCID: 0Ugv1TOFMtoe9y_3G9AToch6uCE-] found.
Track | CTDB Status
1 | (40/40) Accurately ripped
2 | (40/40) Accurately ripped
3 | (40/40) Accurately ripped
[AccurateRip ID: 00014377-00040eb5-1801eb03] found.
Track [ CRC | V2 ] Status
01 [04470fe1|2f6dd3db] (04+16/23) Accurately ripped
02 [7e9e3dd3|a84630d0] (04+14/21) Accurately ripped
03 [ea9a4fbf|7e2ab9dc] (04+14/21) Accurately ripped
Offsetted by -667:
01 [1e5889f5] (00/23) No match (V2 was not tested)
02 [44da77fc] (00/21) No match (V2 was not tested)
03 [f9988694] (00/21) No match (V2 was not tested)

Track Peak [ CRC32 ] [W/O NULL] [ LOG ]
– 98,8 [4E6AA7B5] [DA1D7D04] CRC32
01 98,8 [935BA2BD] [D6A34F9E]
02 74,1 [A6F5899A] [7EC73A66]
03 98,8 [4331CCCD] [60B2B430]


Phil Collins: Singles Collection part 4 (1998 - 2003) Re-up

Tracklist CD05 - 2003 - Look Through My Eyes:Repost
Walt Disney Records, 5050466-9682-2-7

01. Look Through My Eyes [0:03:59.68]
02. Look Through My Eyes (Instrumental) [0:04:06.72]
03. Transformation (Performed by The Bulgarian Womens´s Choir) [0:02:28.98]

Exact Audio Copy V0.99 prebeta 5 from 4. May 2009

EAC extraction logfile from 21. January 2010, 10:00

Phil Collins / Look Through My Eyes

Used drive : HL-DT-STDVDRAM_GSA-T20N Adapter: 0 ID: 0

Read mode : Secure
Utilize accurate stream : Yes
Defeat audio cache : Yes
Make use of C2 pointers : No

Read offset correction : 667
Overread into Lead-In and Lead-Out : No
Fill up missing offset samples with silence : Yes
Delete leading and trailing silent blocks : No
Null samples used in CRC calculations : Yes
Used interface : Native Win32 interface for Win NT & 2000

Used output format : User Defined Encoder
Selected bitrate : 768 kBit/s
Quality : High
Add ID3 tag : No
Command line compressor : C:\Program Files\Exact Audio Copy\Flac\flac.exe
Additional command line options : -6 -V -T "ARTIST=%a" -T "TITLE=%t" -T "ALBUM=%g" -T "DATE=%y" -T "TRACKNUMBER=%n" -T "GENRE=%m" -T "COMMENT=%e" %s -o %d


TOC of the extracted CD

Track | Start | Length | Start sector | End sector
––––––––––––––––––––––––––––-
1 | 0:00.00 | 3:59.51 | 0 | 17975
2 | 3:59.51 | 4:06.54 | 17976 | 36479
3 | 8:06.30 | 2:28.74 | 36480 | 47653


Range status and errors

Selected range

Filename D:\Music\Phil Collins - Singles Collection\Phil Collins - Look Through My Eyes.wav

Peak level 96.1 %
Range quality 100.0 %
Test CRC 8813A90B
Copy CRC 8813A90B
Copy OK

No errors occurred


AccurateRip summary

Track 1 accurately ripped (confidence 1) [54A91100]
Track 2 accurately ripped (confidence 1) [F0221C3B]
Track 3 accurately ripped (confidence 1) [115A7B1E]

All tracks accurately ripped

End of status report


[CUETools log; Date: 26.06.2018 22:10:45; Version: 2.1.5]
[CTDB TOCID: XISnEiFW9rkcsmYnOFU1tZH2zZo-] found.
Track | CTDB Status
1 | (7/7) Accurately ripped
2 | (7/7) Accurately ripped
3 | (7/7) Accurately ripped
[AccurateRip ID: 00018ede-00052089-1d027b03] found.
Track [ CRC | V2 ] Status
01 [54a91100|6e4f7087] (02+08/10) Accurately ripped
02 [f0221c3b|6ae8c33d] (02+09/11) Accurately ripped
03 [115a7b1e|dd7a7131] (02+08/10) Accurately ripped

Track Peak [ CRC32 ] [W/O NULL] [ LOG ]
– 96,1 [8813A90B] [95FD434C] CRC32
01 82,5 [8EEB6FC7] [CA2A7B3F]
02 96,1 [C5FB5DE1] [690B7993]
03 96,1 [51C5F4EF] [D7298193]


Phil Collins: Singles Collection part 4 (1998 - 2003) Re-up

Tracklist CD06 - 2003 - The Least You Can Do - Wake Up Call:Repost
Face Value Records, SAM 00769

01. The Least You Can Do [0:04:15.40]
02. Wake Up Call [0:04:14.42]

Exact Audio Copy V0.99 prebeta 5 from 4. May 2009

EAC extraction logfile from 26. January 2010, 20:22

Phil Collins / The Least You Can Do / Wake Up Call

Used drive : HL-DT-STDVDRAM_GSA-T20N Adapter: 0 ID: 0

Read mode : Secure
Utilize accurate stream : Yes
Defeat audio cache : Yes
Make use of C2 pointers : No

Read offset correction : 667
Overread into Lead-In and Lead-Out : No
Fill up missing offset samples with silence : Yes
Delete leading and trailing silent blocks : No
Null samples used in CRC calculations : Yes
Used interface : Installed external ASPI interface

Used output format : User Defined Encoder
Selected bitrate : 768 kBit/s
Quality : High
Add ID3 tag : No
Command line compressor : C:\Program Files\Exact Audio Copy\Flac\flac.exe
Additional command line options : -8 -V %s


TOC of the extracted CD

Track | Start | Length | Start sector | End sector
––––––––––––––––––––––––––––-
1 | 0:00.00 | 4:15.30 | 0 | 19154
2 | 4:15.30 | 4:14.32 | 19155 | 38236


Range status and errors

Selected range

Filename C:\Music\Phil Collins - The Least You Can Do - Wake Up Call - 2tr.wav

Peak level 99.7 %
Range quality 100.0 %
Test CRC AD83809E
Copy CRC AD83809E
Copy OK

No errors occurred


AccurateRip summary

Track 1 not present in database
Track 2 not present in database

None of the tracks are present in the AccurateRip database

End of status report


[CUETools log; Date: 26.06.2018 22:11:07; Version: 2.1.5]
[CTDB TOCID: 2qAzyDSzhvnj.Rsr0aviAOZaV0E-] found.
Track | CTDB Status
1 | (2/2) Accurately ripped
2 | (2/2) Accurately ripped
[AccurateRip ID: 0000e030-000255be-1001fd02] found.
Track [ CRC | V2 ] Status
01 [0f2bb55e|5cf0fe20] (0+2/2) Accurately ripped
02 [5b87456e|81a364ba] (0+2/2) Accurately ripped

Track Peak [ CRC32 ] [W/O NULL] [ LOG ]
– 99,7 [AD83809E] [9A2BDE2D] CRC32
01 99,7 [6CF9FD7E] [F5D05F75]
02 99,7 [E146AF03] [19A4859F]


Phil Collins: Singles Collection part 4 (1998 - 2003) Re-up

Tracklist CD07 - 2003 - The Least You Can Do - Wake Up Call:Repost
Face Value Records, EW260CD / 50-50466-4187-2-2

01. The Least You Can Do [0:04:23.26]
02. Wake Up Call [0:04:14.20]
03. Hey, Now Sunshine [0:05:02.02]

Exact Audio Copy V0.99 prebeta 5 from 4. May 2009

EAC extraction logfile from 26. January 2010, 18:31

The Least You Can Do / Wake Up Call / Phil Collins

Used drive : HL-DT-STDVDRAM_GSA-T20N Adapter: 0 ID: 0

Read mode : Secure
Utilize accurate stream : Yes
Defeat audio cache : Yes
Make use of C2 pointers : No

Read offset correction : 667
Overread into Lead-In and Lead-Out : No
Fill up missing offset samples with silence : Yes
Delete leading and trailing silent blocks : No
Null samples used in CRC calculations : Yes
Used interface : Installed external ASPI interface

Used output format : User Defined Encoder
Selected bitrate : 768 kBit/s
Quality : High
Add ID3 tag : No
Command line compressor : C:\Program Files\Exact Audio Copy\Flac\flac.exe
Additional command line options : -8 -V %s


TOC of the extracted CD

Track | Start | Length | Start sector | End sector
––––––––––––––––––––––––––––-
1 | 0:00.00 | 4:23.20 | 0 | 19744
2 | 4:23.20 | 4:14.15 | 19745 | 38809
3 | 8:37.35 | 5:02.02 | 38810 | 61461


Range status and errors

Selected range

Filename C:\Music\The Least You Can Do Wake Up Call - Phil Collins.wav

Peak level 100.0 %
Range quality 100.0 %
Test CRC 59AD7FD8
Copy CRC 59AD7FD8
Copy OK

No errors occurred


AccurateRip summary

Track 1 not present in database
Track 2 not present in database
Track 3 not present in database

None of the tracks are present in the AccurateRip database

End of status report


[CUETools log; Date: 26.06.2018 22:11:28; Version: 2.1.5]
[CTDB TOCID: IcYW8jdsytfkT1wG5zPtCN.5InQ-] found.
Track | CTDB Status
1 | (5/5) Accurately ripped
2 | (5/5) Accurately ripped
3 | (5/5) Accurately ripped
[AccurateRip ID: 0001d4d1-00062169-1e033303] found.
Track [ CRC | V2 ] Status
01 [f6f02827|ab2772c0] (2+5/7) Accurately ripped
02 [4489a916|4c0c93f7] (2+5/7) Accurately ripped
03 [c94040e7|9e3d8bb1] (2+5/7) Accurately ripped

Track Peak [ CRC32 ] [W/O NULL] [ LOG ]
– 100,0 [59AD7FD8] [5CCCCB4B] CRC32
01 95,5 [3B17CF1E] [20BCEAE1]
02 88,8 [57BBEF7B] [D52A7DE0]
03 100,0 [3B1AA872] [9D5AAD13]


All thanks go to the original releaser

Phil Collins in my Blog

Download Phil Collins: Singles Collection part 4 (1998 - 2003):