Subcategories

Peter Brown - A Fantasy Love Affair (1977) [2016, Japan]

Posted By: BlondStyle
Peter Brown - A Fantasy Love Affair (1977) [2016, Japan]

Peter Brown - A Fantasy Love Affair (1977) [2016, Japan]
R&B, Soul/Funk, Disco | EAC Rip | FLAC, Tracks+CUE+LOG+Full Scans (JPEG) | 41:07 | 297,87 Mb
Label: Solid Records/Ultra-Vybe (Japan) | Cat.# UVPR-10145 (CDSOL-5624) | Released: 2016-06-15 (1977)

"A Fantasy Love Affair" is the debut album by Peter Brown. The album was recorded in 1976-77. It was mastered by Ted Jensen of Sterling Sound. It charted #9 on Billboard's R&B charts and #11 on the Pop chart. It was successful on the disco charts as well and spawned four singles, three of which were hits, including Do Ya Wanna Get Funky With Me and Dance With Me. In the UK the album was titled "Do You Wanna Get Funky With Me" and featured a backlit silhouette of a nude woman standing in a window as its sleeve cover. Brown also photographed the album's somewhat controversial cover and revealed, in a 1978 interview in Rolling Stone, that he had created the cover's nude model out of cardboard, sheer fabric and ribbons. Until then, no one ever suspected it was not a real person.
~Wikipedia
Thanks to "Do You Wanna Get Funky With Me," a million-selling crossover disco single that lit up the black singles, club play, and pop singles charts, Peter Brown's debut album for TK Disco offshoot Drive, A Fantasy Love Affair, also placed high, reaching number six on the black albums chart. Though "Do You Wanna Get Funky With Me" and "Dance With Me" are clearly intended for clubs, the remainder of the album also shows flashes of a less-cynical Steely Dan in songs like "A Fantasy Love Affair" and "It's True What They Say About Love." The other half of the album is well-crafted by multi-instrumentalist Brown, if nondescript.
~Review by Andy Kellman

Peter Brown - A Fantasy Love Affair (1977) [2016, Japan]

Peter Brown - A Fantasy Love Affair (1977) [2016, Japan]




Release of this album: 1977 [LP Drive, Cat.# 104, USA]
Release of this CD: 2016, June, 15 [CD Solid Records/Ultra-Vybe, Inc. (Japan), Cat.# UVPR-10145 (CDSOL-5624) / EAN: 4526180381693]
℗&© 2016 Henry Stone Music
The copyright in this sound recording is owned by Henry Stone Music.
Licensed courtesy of Henry Stone Music.
Manufactured and distributed by Ultra-Vybe, Inc.
Made in Japan


Credits:

A&R – Toshiyuki Kasajima
Arranged By [Strings, Horns], Conductor – Burt Dovo
Arranged By, Lead Vocals, Mixed By, Synthesizer, Written-By, Composed By – Peter Brown
Concertmaster – Gene Orloff
Engineer – Gary Vandy, Marcos Tobal
Engineer [Assistant] – Pat Powers
Executive-Producer [Re-issue] – Mamoru Ko
Mastered By – Ted Jensen
Producer, Mixed By – Cory Wade
Remastered By – Toshiyuki Abe


Tracklist:

01. Fantasy Love Affair (03:54)
02. Do Ya Wanna Get Funky With Me? (09:07)
03. You Should Do It (03:50)
04. The Singer's Become A Dancer (03:55)
05. For Your Love (04:19)
06. Dance With Me (05:19)
07. It's True What They Say About Love (03:41)
08. Without Love (03:18)
Bonus Track
09. Dance With Me (7 Inch Version) (03:43)

Exact Audio Copy V1.0 beta 2 from 29. April 2011

Отчёт EAC об извлечении, выполненном 5. декабря 2018, 14:25

Peter Brown / A Fantasy Love Affair

Дисковод: ASUS DRW-24D5MT Adapter: 0 ID: 1

Режим чтения : Достоверность
Использование точного потока : Да
Отключение кэша аудио : Да
Использование указателей C2 : Нет

Коррекция смещения при чтении : 6
Способность читать области Lead-in и Lead-out : Нет
Заполнение пропущенных сэмплов тишиной : Да
Удаление блоков с тишиной в начале и конце : Нет
При вычислениях CRC использовались нулевые сэмплы : Да
Интерфейс : Встроенный Win32-интерфейс для Win NT/2000
Обработка зазоров : Добавлено к предыдущему треку

Выходной формат : Пользовательский кодировщик
Выбранный битрейт : 128 kBit/s
Качество : Высокий
Добавление ID3-тега : Нет
Утилита сжатия : C:\Program Files\Exact Audio Copy\FLAC\FLAC.EXE
Дополнительные параметры : -8 -V -T "ARTIST=%artist%" -T "TITLE=%title%" -T "ALBUM=%albumtitle%" -T "DATE=%year%" -T "TRACKNUMBER=%tracknr%" -T "GENRE=%genre%" -T "COMMENT=%comment%" -T "BAND=%albuminterpret%" -T "COMPOSER=%composer%" %haslyrics%–tag-from-


TOC извлечённого CD

Трек | Старт | Длительность | Начальный сектор | Конечный сектор
––––––––––––––––––––––––––––––––––-
1 | 0:00.00 | 3:54.19 | 0 | 17568
2 | 3:54.19 | 9:07.07 | 17569 | 58600
3 | 13:01.26 | 3:50.24 | 58601 | 75874
4 | 16:51.50 | 3:54.55 | 75875 | 93479
5 | 20:46.30 | 4:18.55 | 93480 | 112884
6 | 25:05.10 | 5:19.24 | 112885 | 136833
7 | 30:24.34 | 3:40.73 | 136834 | 153406
8 | 34:05.32 | 3:17.45 | 153407 | 168226
9 | 37:23.02 | 3:43.28 | 168227 | 184979


Трек 1

Имя файла D:\FLAC\01 Fantasy Love Affair.wav

Длина предзазора 0:00:02.00

Пиковый уровень 97.8 %
Скорость извлечения 4.3 X
Качество трека 100.0 %
CRC теста 4B2DFA8C
CRC копии 4B2DFA8C
Точность не определена (достоверность 1) [0525E4B5], AccurateRip вернул [BD010F1E] (AR v2)
Копирование… OK

Трек 2

Имя файла D:\FLAC\02 Do Ya Wanna Get Funky With Me.wav

Пиковый уровень 97.8 %
Скорость извлечения 5.2 X
Качество трека 99.9 %
CRC теста DC673738
CRC копии DC673738
Точность не определена (достоверность 1) [B25CAA62], AccurateRip вернул [CC360698] (AR v2)
Копирование… OK

Трек 3

Имя файла D:\FLAC\03 You Should Do It.wav

Пиковый уровень 97.8 %
Скорость извлечения 5.7 X
Качество трека 100.0 %
CRC теста 664806BC
CRC копии 664806BC
Точность не определена (достоверность 1) [C8EA2F88], AccurateRip вернул [BAE4D2DE] (AR v2)
Копирование… OK

Трек 4

Имя файла D:\FLAC\04 The Singer's Become A Dancer.wav

Пиковый уровень 97.8 %
Скорость извлечения 5.3 X
Качество трека 99.9 %
CRC теста 16ACD201
CRC копии 16ACD201
Точность не определена (достоверность 1) [A2CC5782], AccurateRip вернул [C2D99004] (AR v2)
Копирование… OK

Трек 5

Имя файла D:\FLAC\05 For Your Love.wav

Пиковый уровень 97.8 %
Скорость извлечения 6.4 X
Качество трека 100.0 %
CRC теста 9E2A594E
CRC копии 9E2A594E
Точность не определена (достоверность 1) [9B9DF5E9], AccurateRip вернул [A42D288F] (AR v2)
Копирование… OK

Трек 6

Имя файла D:\FLAC\06 Dance With Me.wav

Пиковый уровень 97.8 %
Скорость извлечения 6.9 X
Качество трека 100.0 %
CRC теста 9E3F9783
CRC копии 9E3F9783
Точность не определена (достоверность 1) [7BE09900], AccurateRip вернул [0CBD49CC] (AR v2)
Копирование… OK

Трек 7

Имя файла D:\FLAC\07 It's True What They Say About Love.wav

Пиковый уровень 97.8 %
Скорость извлечения 6.9 X
Качество трека 100.0 %
CRC теста 995A6DC5
CRC копии 995A6DC5
Точность не определена (достоверность 1) [3CB33298], AccurateRip вернул [FE58A01D] (AR v2)
Копирование… OK

Трек 8

Имя файла D:\FLAC\08 Without Love.wav

Пиковый уровень 97.8 %
Скорость извлечения 7.0 X
Качество трека 100.0 %
CRC теста 478F980E
CRC копии 478F980E
Точность не определена (достоверность 1) [B0E9A69C], AccurateRip вернул [E8CCB588] (AR v2)
Копирование… OK

Трек 9

Имя файла D:\FLAC\09 Dance With Me (7 Inch Version).wav

Пиковый уровень 97.8 %
Скорость извлечения 7.3 X
Качество трека 100.0 %
CRC теста DAE64BE1
CRC копии DAE64BE1
Точность не определена (достоверность 1) [E8CE31E3], AccurateRip вернул [F84B8123] (AR v2)
Копирование… OK


Ни один трек не прошёл проверки на точность
В вашей базе может быть иной вариант штамповки диска

Ошибок не произошло

Конец отчёта

–– CUETools DB Plugin V2.1.4

[CTDB TOCID: POn34fHS2EDCEnla0E3S_AR9gAg-] found
Submit result: POn34fHS2EDCEnla0E3S_AR9gAg- has been confirmed
Track | CTDB Status
1 | (2/2) Accurately ripped
2 | (2/2) Accurately ripped
3 | (2/2) Accurately ripped
4 | (2/2) Accurately ripped
5 | (2/2) Accurately ripped
6 | (2/2) Accurately ripped
7 | (2/2) Accurately ripped
8 | (2/2) Accurately ripped
9 | (2/2) Accurately ripped


==== Контрольная сумма отчёта AA6E8695B6D4BCC9AF1EBE0999AB4186A1AEB77A33CB335075D3102C9F3215C8 ====

––––––––––––––––––––––––––––––––––––––––
Analyzed: Peter Brown / A Fantasy Love Affair
––––––––––––––––––––––––––––––––––––––––

DR Peak RMS Duration Track
––––––––––––––––––––––––––––––––––––––––
DR9 -0.19 dB -9.90 dB 3:54 01-Fantasy Love Affair
DR10 -0.19 dB -12.66 dB 9:07 02-Do Ya Wanna Get Funky With Me?
DR10 -0.19 dB -11.30 dB 3:50 03-You Should Do It
DR10 -0.19 dB -12.07 dB 3:55 04-The Singer's Become A Dancer
DR10 -0.19 dB -11.85 dB 4:19 05-For Your Love
DR9 -0.19 dB -11.16 dB 5:19 06-Dance With Me
DR9 -0.19 dB -10.55 dB 3:41 07-It's True What They Say About Love
DR10 -0.19 dB -13.71 dB 3:18 08-Without Love
DR10 -0.19 dB -12.12 dB 3:43 09-Dance With Me (7 Inch Version)
––––––––––––––––––––––––––––––––––––––––

Number of tracks: 9
Official DR value: DR10

Samplerate: 44100 Hz
Channels: 2
Bits per sample: 16
Bitrate: 583 kbps
Codec: FLAC
================================================================================

Thanks to index123458

@>~Welcome To My Blog~<@

password: BlondStyle