Subcategories

Paul McCartney & Wings - Red Rose Speedway (1973) [1996, DCC, GZS-1091]

Posted By: v3122
Paul McCartney & Wings - Red Rose Speedway (1973) [1996, DCC, GZS-1091]

Paul McCartney & Wings - Red Rose Speedway (1973)
EAC | Flac(Image) + Cue + Log) & MP3 CBR 320Kbps
1996 | DCC, GZS-1091 | ~ 361 or 142 Mb | Scans(jpg, 600dpi) -> 128 Mb
Rock / Classic Rock / Soft Rock

All right, he's made a record with his wife and a record with his pickup band where democracy is allegedly the conceit even if it never sounds that way, so he returns to a solo effort, making the most disjointed album he ever cut. There's a certain fascination to its fragmented nature, not just because it's decidedly on the softer side of things, but because his desire for homegrown eccentricity has been fused with his inclination for bombastic art rock à la Abbey Road. Consequently, Red Rose Speedway winds up being a really strange record, one that veers toward the schmaltzy AOR MOR (especially on the hit single "My Love"), yet is thoroughly twisted in its own desire toward domestic art. As a result, this is every bit as insular as the lo-fi records of the early '90s, but considerably more artful, since it was, after all, designed by one of the great pop composers of the century. Yes, the greatest songs here are slight – "Big Barn Bed," "One More Kiss," and "When the Night" – but this is a deliberately slight record (slight in the way a snapshot album is important to a family yet glazes the eyes of any outside observer). Work your way into the inner circle, and McCartney's little flourishes are intoxicating – not just the melodies, but the facile production and offhand invention. If these are miniscule steps forward, consider this: if Brian Wilson can be praised for his half-assed ideas and execution, then why not McCartney, who has more character here than the Beach Boys did on their Brother records? Truthfully.

by Stephen Thomas Erlewine, AMG
Paul McCartney & Wings - Red Rose Speedway (1973):

Paul McCartney & Wings - Red Rose Speedway (1973) [1996, DCC, GZS-1091]

Tracklist:

01. Big Barn Bed
02. My Love
03. Get On The Right Thing
04. Only One More Kiss
05. Little Lamb Dragonfly
06. Single Pigeon
07. When The Night
08. Loup (1st Indian On The Moon)
09. Medley - Hold Me Tight - Lazy Dynamite - Hands Of Love - Power Cut
10. C Moon
11. Hi, Hi, Hi
12. The Mess (Recorded Live At The Hague)
13. I Lie Around

Exact Audio Copy V0.99 prebeta 5 from 4. May 2009

Отчёт EAC об извлечении, выполненном 30. января 2011, 22:08

Paul McCartney & Wings / Red Rose Speedway (DCC)

Дисковод: Optiarc DVD RW AD-7240S Adapter: 1 ID: 0

Режим чтения : Достоверность
Использование точного потока : Да
Отключение кэша аудио : Да
Использование указателей C2 : Нет

Коррекция смещения при чтении : 48
Способность читать области Lead-in и Lead-out : Нет
Заполнение пропущенных сэмплов тишиной : Да
Удаление блоков с тишиной в начале и конце : Нет
При вычислениях CRC использовались нулевые сэмплы : Да
Интерфейс : Встроенный Win32-интерфейс для Win NT/2000

Выходной формат : Пользовательский кодировщик
Выбранный битрейт : 768 kBit/s
Качество : Высокий
Добавление ID3-тэга : Нет
Утилита сжатия : C:\Program Files\Exact Audio Copy\FLAC\FLAC.EXE
Дополнительные параметры : -6 -V -T "ARTIST=%a" -T "TITLE=%t" -T "ALBUM=%g" -T "DATE=%y" -T "TRACKNUMBER=%n" -T "GENRE=%m" -T "COMMENT=%e" %s -o %d


TOC извлечённого CD

Трек | Старт | Длительность | Начальный сектор | Конечный сектор
––––––––––––––––––––––––––––––––––-
1 | 0:00.32 | 3:48.60 | 32 | 17191
2 | 3:49.17 | 4:11.38 | 17192 | 36054
3 | 8:00.55 | 4:18.30 | 36055 | 55434
4 | 12:19.10 | 2:32.15 | 55435 | 66849
5 | 14:51.25 | 6:19.72 | 66850 | 95346
6 | 21:11.22 | 1:52.48 | 95347 | 103794
7 | 23:03.70 | 3:40.37 | 103795 | 120331
8 | 26:44.32 | 4:22.43 | 120332 | 140024
9 | 31:07.00 | 11:24.65 | 140025 | 191389
10 | 42:31.65 | 4:35.42 | 191390 | 212056
11 | 47:07.32 | 3:11.30 | 212057 | 226411
12 | 50:18.62 | 4:59.28 | 226412 | 248864
13 | 55:18.15 | 5:00.17 | 248865 | 271381


Характеристики диапазона извлечения и сообщения об ошибках

Выбранный диапазон

Имя файла E:\music\Музон\McCartney-Gold\Red Rose Speedway\Paul McCartney & Wings - Red Rose Speedway (DCC).wav

Пиковый уровень 100.0 %
Качество диапазона 100.0 %
CRC теста CDC52236
CRC копии CDC52236
Копирование… OK

Ошибок не произошло


AccurateRip: сводка

Трек 1 точное извлечение (доверие 12) [B0C6F558]
Трек 2 точное извлечение (доверие 12) [CE132869]
Трек 3 точное извлечение (доверие 12) [1D131E28]
Трек 4 точное извлечение (доверие 12) [98721A2B]
Трек 5 точное извлечение (доверие 12) [9A0EAC20]
Трек 6 точное извлечение (доверие 13) [1EC57271]
Трек 7 точное извлечение (доверие 12) [760269AA]
Трек 8 точное извлечение (доверие 12) [8E1A55EE]
Трек 9 точное извлечение (доверие 12) [DC18F81D]
Трек 10 точное извлечение (доверие 12) [A8EB0163]
Трек 11 точное извлечение (доверие 12) [8C0D2EE2]
Трек 12 точное извлечение (доверие 12) [225B3B9D]
Трек 13 точное извлечение (доверие 11) [BA7807C2]

Все треки извлечены точно

Конец отчёта

foobar2000 1.2.9 / Dynamic Range Meter 1.1.1
log date: 2014-04-29 10:52:44

––––––––––––––––––––––––––––––––––––––––
Analyzed: Paul McCartney & Wings / Red Rose Speedway (DCC)
––––––––––––––––––––––––––––––––––––––––

DR Peak RMS Duration Track
––––––––––––––––––––––––––––––––––––––––
DR9 0.00 dB -12.27 dB 3:49 01-Big Barn Bed
DR10 0.00 dB -12.55 dB 4:12 02-My Love
DR10 -1.88 dB -14.09 dB 4:18 03-Get On The Right Thing
DR12 -1.11 dB -14.74 dB 2:32 04-Only One More Kiss
DR10 -0.72 dB -14.41 dB 6:20 05-Little Lamb Dragonfly
DR11 -1.79 dB -16.97 dB 1:53 06-Single Pigeon
DR12 0.00 dB -14.78 dB 3:40 07-When The Night
DR13 -1.71 dB -18.58 dB 4:23 08-Loup (1st Indian On The Moon)
DR12 -0.22 dB -15.35 dB 11:25 09-Medley - Hold Me Tight - Lazy Dynamite - Hands Of Love - Power Cut
DR10 -1.71 dB -14.06 dB 4:36 10-C Moon
DR10 0.00 dB -12.84 dB 3:11 11-Hi, Hi, Hi
DR9 -0.44 dB -12.88 dB 4:59 12-The Mess (Recorded Live At The Hague)
DR10 -1.46 dB -14.12 dB 5:00 13-I Lie Around
––––––––––––––––––––––––––––––––––––––––

Number of tracks: 13
Official DR value: DR11

Samplerate: 44100 Hz
Channels: 2
Bits per sample: 16
Bitrate: 813 kbps
Codec: FLAC

Paul McCartney & Wings - Red Rose Speedway (1973) [1996, DCC, GZS-1091]

All thanks go to the original releaser