Subcategories

Phil Woods, Gene Quill, Jackie McLean, John Jenkins, Hal McKusick - Bird Feathers (1958) {1989 OJC}

Posted By: TestTickles
Phil Woods, Gene Quill, Jackie McLean, John Jenkins, Hal McKusick - Bird Feathers (1958) {1989 OJC}

Phil Woods, Gene Quill, Jackie McLean, John Jenkins, Hal McKusick - Bird Feathers (1958) {1989 OJC}
EAC Rip | FLAC with CUE and log | scans | 283 mb
MP3 CBR 320kbps | RAR | 101 mb
Genre: jazz

Bird Feathers is a 1958 collaborative album with Phil Woods, Gene Quill, Jackie McLean, John Jenkins and Hal McKusick. It features songs from three different sessions with three different sets of musicians, all recorded throughout 1957. Originally released by Prestige, this was remastered and reissued in 1989 by Original Jazz Classics.

Phil Woods, Gene Quill, Jackie McLean, John Jenkins, Hal McKusick - Bird Feathers (1958) {1989 OJC}

1. Solar
2. Bird Feathers
3. Interim
4. Airegin
5. Dont' Worry 'Bout Me
6. Con Alma

Tracks 1 & 4, recorded 29 March, 1957
Phil Woods-alto sax
Gene Quill-alto sax
George Syran-piano
Teddy Kotick-bass
Nick Stabulas-drums

Track 2, recorded 3 May, 1957
Jackie McLean-alto sax
John Jenkins-alto sax
Wade Legge-piano
Doug Watkins-bass
Art Taylor-drums

Tracks 3, 5 & 6, recorded 27 December, 1957
Hal McKusick-alto sax
Billy Byers-trombone
Eddie Costa-piano
Paul Chambers-bass
Charlie Persip-drums

Supervision by Bob Weinstock
Engineered by Rudy Van Gelder
Remastered by Phil De Lancie

EAC extraction logfile from 28. December 2007, 13:00 for CD
Phil Woods, Gene Quill, Jackie McLean, John Jenkins, Hal McKusick / Bird Feathers

Used drive : HL-DT-STCDRW/DVD GCC4482 Adapter: 1 ID: 0
Read mode : Secure with NO C2, accurate stream, disable cache
Read offset correction : 6
Overread into Lead-In and Lead-Out : No

Used output format : C:\Eac\Codecs\flac.exe (User Defined Encoder)
320 kBit/s
Additional command line options : -8 -V -T "artist=%a" -T "title=%t" -T "album=%g" -T "date=%y" -T "tracknumber=%n" -T "genre=%m" -T "comment=EAC Flac 1.1.2 -8" %s

Other options :
Fill up missing offset samples with silence : Yes
Delete leading and trailing silent blocks : No
Installed external ASPI interface


Track 1
Filename C:\FLAC\Phil Woods, Gene Quill, Jackie McLean, John Jenkins, Hal McKusick - Bird Feathers (1957) [FLAC] {1989 OJC}\01 - Solar.wav

Pre-gap length 0:00:02.00

Peak level 65.8 %
Track quality 100.0 %
Test CRC AEF1593C
Copy CRC AEF1593C
Copy OK

Track 2
Filename C:\FLAC\Phil Woods, Gene Quill, Jackie McLean, John Jenkins, Hal McKusick - Bird Feathers (1957) [FLAC] {1989 OJC}\02 - Bird Feathers.wav

Pre-gap length 0:00:03.42

Peak level 55.6 %
Track quality 100.0 %
Test CRC 40CDD35F
Copy CRC 40CDD35F
Copy OK

Track 3
Filename C:\FLAC\Phil Woods, Gene Quill, Jackie McLean, John Jenkins, Hal McKusick - Bird Feathers (1957) [FLAC] {1989 OJC}\03 - Interim.wav

Pre-gap length 0:00:03.46

Peak level 60.2 %
Track quality 100.0 %
Test CRC A765BFFD
Copy CRC A765BFFD
Copy OK

Track 4
Filename C:\FLAC\Phil Woods, Gene Quill, Jackie McLean, John Jenkins, Hal McKusick - Bird Feathers (1957) [FLAC] {1989 OJC}\04 - Airegin.wav

Pre-gap length 0:00:01.97

Peak level 73.9 %
Track quality 100.0 %
Test CRC 0DD5F272
Copy CRC 0DD5F272
Copy OK

Track 5
Filename C:\FLAC\Phil Woods, Gene Quill, Jackie McLean, John Jenkins, Hal McKusick - Bird Feathers (1957) [FLAC] {1989 OJC}\05 - Don't Worry 'Bout Me.wav

Pre-gap length 0:00:03.86

Peak level 48.2 %
Track quality 100.0 %
Test CRC 68BFF679
Copy CRC 68BFF679
Copy OK

Track 6
Filename C:\FLAC\Phil Woods, Gene Quill, Jackie McLean, John Jenkins, Hal McKusick - Bird Feathers (1957) [FLAC] {1989 OJC}\06 - Con Alma.wav

Pre-gap length 0:00:03.60

Peak level 66.2 %
Track quality 100.0 %
Test CRC D8694486
Copy CRC D8694486
Copy OK

No errors occured


End of status report


Phil Woods, Gene Quill, Jackie McLean, John Jenkins, Hal McKusick - Bird Feathers (1958) {1989 OJC}


Thank you to the original uploader.