Subcategories

Ozzy Osbourne - Memoirs Of A Madman (2014) {Remastered}

Posted By: popsakov
Ozzy Osbourne - Memoirs Of A Madman (2014) {Remastered}

Ozzy Osbourne - Memoirs Of A Madman (2014) {Remastered}
EAC Rip | FLAC (Img) + Cue + Log ~ 586 Mb | MP3 CBR320 ~ 188 Mb
Full Scans ~ 97 Mb | RAR 5% Recovery
Epic / Legacy / Warner Music Russia #88875018642
Hard Rock / Heavy Metal

Through summoning demons from the depths of hell as the frontman of metal pioneers Black Sabbath in their best days, partying hard through the '80s and landing on a reality show focusing on his dysfunctional family in the 2000s, Ozzy Osbourne has kept on the wicked side for the majority of his decades-spanning career in evil. Starting his solo bid almost immediately after his departure from Sabbath, Ozzy turned in classic metal albums with early-'80s Randy Rhoads collaborations like Blizzard of Ozz and Diary of a Madman, and stayed consistently strong with many platinum-selling albums throughout the '90s, 2000s, and beyond. The Ozzman has never shied away from live records, repackagings, or greatest-hits collections, either, and Memoirs of a Madman collects standout cuts from each of his 11 studio albums, offering a full range of singles that shows the full spectrum of his development as the ever-menacing prince of heavy metal darkness. The 17 tracks here run in chronological order, from 1980’s easily recognizable “Crazy Train” through to particularly dated-sounding early-'90s power ballads like “Mama I’m Coming Home” up to “Let Me Hear You Scream” from his 2010 studio offering Scream. His Sabbath days get a nod or two as well, with a cover of their brooding piano ballad “Changes” that Ozzy and daughter Kelly serve up as an awkward daddy-daughter duet, and an unreleased live recording of “Paranoid” from 2010. While the material is inarguably some of the consolidated best Ozzy has recorded, it’s hard to know where to put Memoirs of a Madman. The post-'80s tunes get considerably weaker, and even the strongest tracks from Ultimate Sin-era Ozzy don’t touch anything from even his most drug-addled and confused days in Black Sabbath. Die-hard fans probably don’t need a collection so basic (the sole unreleased track, the aforementioned live version of “Paranoid,” is hardly essential listening) and anyone just coming to Ozzy's music could find a better introduction in any of the first three or four solo albums. While less thorough in their coverage of Ozzy’s long, strange road, they offer far more song-for-song and capture a time when the danger and devilishness of Ozzy’s increasingly hollow persona was backed up by more inspired songwriting and support from some of his strongest collaborators.

~ Fred Thomas, All Music

***************

Ozzy Osbourne - Memoirs Of A Madman (2014) {Remastered}

Track List:

01. Crazy Train [4:51]
02. Mr. Crowley [4:57]
03. Flying High Again [4:44]
04. Over the Mountain [4:32]
05. Bark at the Moon [4:17]
06. The Ultimate Sin [3:45]
07. Miracle Man [3:45]
08. No More Tears (edit) [5:56]
09. Mama, I'm Coming Home [4:12]
10. Road to Nowhere [5:10]
11. Perry Mason [5:54]
12. I Just Want You [4:56]
13. Gets Me Through [5:06]
14. Changes [4:09]
15. I Don't Wanna Stop [4:02]
16. Let Me Hear You Scream [3:28]
17. Paranoid (live) [4:19]

Exact Audio Copy V1.3 from 2. September 2016

EAC extraction logfile from 19. July 2019, 18:44

Ozzy Osbourne / Memoirs Of A Madman

Used drive : ASUS DRW-24D5MT Adapter: 1 ID: 1

Read mode : Secure
Utilize accurate stream : Yes
Defeat audio cache : Yes
Make use of C2 pointers : No

Read offset correction : 6
Overread into Lead-In and Lead-Out : No
Fill up missing offset samples with silence : Yes
Delete leading and trailing silent blocks : No
Null samples used in CRC calculations : Yes
Used interface : Installed external ASPI interface

Used output format : User Defined Encoder
Selected bitrate : 128 kBit/s
Quality : High
Add ID3 tag : No
Command line compressor : C:\Program Files (x86)\Exact Audio Copy\Flac\flac.exe
Additional command line options : -8 -V -T "TITLE=%title%" -T "ARTIST=%artist%" -T "ALBUMARTIST=%albumartist%" -T "ALBUM=%albumtitle%" -T "DATE=%year%" -T "TRACKNUMBER=%tracknr%" -T "TRACKTOTAL=%numtracks%" -T "GENRE=%genre%" -T "COMMENT=%comment%" -T "PERFORMER=%albuminterpret%" -T "COMPOSER=%composer%" %source% -o %dest%


TOC of the extracted CD

Track | Start | Length | Start sector | End sector
––––––––––––––––––––––––––––-
1 | 0:00.00 | 4:51.00 | 0 | 21824
2 | 4:51.00 | 4:57.00 | 21825 | 44099
3 | 9:48.00 | 4:43.50 | 44100 | 65374
4 | 14:31.50 | 4:32.08 | 65375 | 85782
5 | 19:03.58 | 4:17.21 | 85783 | 105078
6 | 23:21.04 | 3:45.25 | 105079 | 121978
7 | 27:06.29 | 3:44.55 | 121979 | 138833
8 | 30:51.09 | 5:55.70 | 138834 | 165528
9 | 36:47.04 | 4:12.02 | 165529 | 184430
10 | 40:59.06 | 5:10.28 | 184431 | 207708
11 | 46:09.34 | 5:53.46 | 207709 | 234229
12 | 52:03.05 | 4:55.62 | 234230 | 256416
13 | 56:58.67 | 5:06.03 | 256417 | 279369
14 | 62:04.70 | 4:09.02 | 279370 | 298046
15 | 66:13.72 | 4:02.00 | 298047 | 316196
16 | 70:15.72 | 3:27.43 | 316197 | 331764
17 | 73:43.40 | 4:18.61 | 331765 | 351175


Range status and errors

Selected range

Filename C:\Users\breaker65\Desktop\2014. Memoirs Of A Madman\Ozzy Osbourne - Memoirs Of A Madman.wav

Peak level 99.4 %
Extraction speed 2.0 X
Range quality 100.0 %
Test CRC 5F9A7903
Copy CRC 5F9A7903
Copy OK

No errors occurred


AccurateRip summary

Track 1 accurately ripped (confidence 52) [02F5A3DD] (AR v2)
Track 2 accurately ripped (confidence 52) [895DAE13] (AR v2)
Track 3 accurately ripped (confidence 52) [E9718ECE] (AR v2)
Track 4 accurately ripped (confidence 52) [2AC07940] (AR v2)
Track 5 accurately ripped (confidence 51) [738221DD] (AR v2)
Track 6 accurately ripped (confidence 51) [77B9F360] (AR v2)
Track 7 accurately ripped (confidence 51) [60A2E331] (AR v2)
Track 8 accurately ripped (confidence 51) [5602349A] (AR v2)
Track 9 accurately ripped (confidence 51) [A0CC0AC9] (AR v2)
Track 10 accurately ripped (confidence 51) [E85DE4FC] (AR v2)
Track 11 accurately ripped (confidence 50) [AD749960] (AR v2)
Track 12 accurately ripped (confidence 49) [3A7CCCB0] (AR v2)
Track 13 accurately ripped (confidence 51) [28664DBC] (AR v2)
Track 14 accurately ripped (confidence 50) [ED969B0F] (AR v2)
Track 15 accurately ripped (confidence 50) [51B2648A] (AR v2)
Track 16 accurately ripped (confidence 50) [7DFF2EAE] (AR v2)
Track 17 accurately ripped (confidence 47) [8D45CD74] (AR v2)

All tracks accurately ripped

End of status report

–– CUETools DB Plugin V2.1.6

[CTDB TOCID: iBtchL9W7Rf1Y8yURd0hPpCq6.w-] found
Submit result: iBtchL9W7Rf1Y8yURd0hPpCq6.w- has been confirmed
Track | CTDB Status
1 | (147/147) Accurately ripped
2 | (146/147) Accurately ripped
3 | (146/147) Accurately ripped
4 | (147/147) Accurately ripped
5 | (147/147) Accurately ripped
6 | (147/147) Accurately ripped
7 | (147/147) Accurately ripped
8 | (146/147) Accurately ripped
9 | (146/147) Accurately ripped
10 | (146/147) Accurately ripped
11 | (147/147) Accurately ripped
12 | (145/147) Accurately ripped
13 | (147/147) Accurately ripped
14 | (146/147) Accurately ripped
15 | (147/147) Accurately ripped
16 | (144/147) Accurately ripped
17 | (133/147) Accurately ripped


==== Log checksum 604D7DC809B1C573930EBA0251C009F94BC83A23EF071C0BBE5D27E236B423E0 ====

[CUETools log; Date: 22.07.2019 10:19:00; Version: 2.1.6]
[CTDB TOCID: iBtchL9W7Rf1Y8yURd0hPpCq6.w-] found.
Track | CTDB Status
1 | (148/148) Accurately ripped
2 | (147/148) Accurately ripped
3 | (147/148) Accurately ripped
4 | (148/148) Accurately ripped
5 | (148/148) Accurately ripped
6 | (148/148) Accurately ripped
7 | (148/148) Accurately ripped
8 | (147/148) Accurately ripped
9 | (147/148) Accurately ripped
10 | (147/148) Accurately ripped
11 | (148/148) Accurately ripped
12 | (146/148) Accurately ripped
13 | (148/148) Accurately ripped
14 | (147/148) Accurately ripped
15 | (148/148) Accurately ripped
16 | (145/148) Accurately ripped
17 | (134/148) Accurately ripped
[AccurateRip ID: 0030f2a6-026be9c2-eb124a11] found.
Track [ CRC | V2 ] Status
01 [5b32f7d9|02f5a3dd] (00+52/56) Accurately ripped
02 [20b67dc2|895dae13] (00+52/56) Accurately ripped
03 [0806c9e1|e9718ece] (00+52/56) Accurately ripped
04 [b77f19c0|2ac07940] (00+52/56) Accurately ripped
05 [a1eabdc2|738221dd] (00+51/55) Accurately ripped
06 [681ed974|77b9f360] (00+51/55) Accurately ripped
07 [7179fb8f|60a2e331] (00+51/55) Accurately ripped
08 [bf33e7e1|5602349a] (00+51/55) Accurately ripped
09 [93f8e13f|a0cc0ac9] (00+51/54) Accurately ripped
10 [2530da4a|e85de4fc] (00+51/54) Accurately ripped
11 [0b5bc4e0|ad749960] (00+50/54) Accurately ripped
12 [3e587737|3a7cccb0] (00+49/53) Accurately ripped
13 [193c864a|28664dbc] (00+51/55) Accurately ripped
14 [e0f8942d|ed969b0f] (00+50/54) Accurately ripped
15 [07b2f512|51b2648a] (00+50/54) Accurately ripped
16 [1fc9cc3c|7dff2eae] (00+50/54) Accurately ripped
17 [eb1ff42a|8d45cd74] (00+47/54) Accurately ripped
Offsetted by -646:
01 [a91ca8e1] (00/56) No match (V2 was not tested)
02 [0efa0a28] (00/56) No match (V2 was not tested)
03 [4c315cd7] (00/56) No match (V2 was not tested)
04 [db2c74b6] (00/56) No match (V2 was not tested)
05 [d6c81452] (00/55) No match (V2 was not tested)
06 [315dbb3c] (00/55) No match (V2 was not tested)
07 [0089efc9] (00/55) No match (V2 was not tested)
08 [8959fa53] (00/55) No match (V2 was not tested)
09 [320566db] (00/54) No match (V2 was not tested)
10 [280b5750] (00/54) No match (V2 was not tested)
11 [dd5d5c4c] (00/54) No match (V2 was not tested)
12 [dbdf2195] (00/53) No match (V2 was not tested)
13 [42f9d688] (00/55) No match (V2 was not tested)
14 [8bdd999b] (00/54) No match (V2 was not tested)
15 [e07c7f50] (00/54) No match (V2 was not tested)
16 [b8756982] (00/54) No match (V2 was not tested)
17 [5938687c] (00/54) No match (V2 was not tested)

Track Peak [ CRC32 ] [W/O NULL] [ LOG ]
– 99,4 [5F9A7903] [249B72E6] CRC32
01 98,5 [B12E357A] [BD7BBA56]
02 97,6 [244ED154] [C110D1A4]
03 99,1 [B8F17A66] [72BB273C]
04 98,6 [1404C3A0] [F2F9A0E9]
05 99,4 [9DDEB34C] [D8F8C801]
06 98,9 [B6FFD019] [6A7897A7]
07 99,4 [829A8C48] [ABA9C754]
08 99,4 [935E188B] [74127996]
09 99,4 [3481ACAF] [CC27BA7D]
10 98,5 [2D26A285] [116451AB]
11 90,9 [D97EE07F] [6CBAB947]
12 91,1 [0D98BF81] [DE3DD081]
13 99,4 [88E4D06A] [E1E6EDB4]
14 97,4 [81FE0657] [A5732EA0]
15 97,2 [DC26EA78] [878BD7B0]
16 88,4 [FEE6DA64] [4376E79C]
17 88,4 [2533BC57] [8D16108F]

Ozzy Osbourne - Memoirs Of A Madman (2014) {Remastered}

All thanks go to breaker65

>>> Ozzy Osbourne in my Blog <<<

Download from icerbox.com: