Subcategories

Nuyorican Soul - Nuyorican Soul (1997)

Posted By: BlondStyle
Nuyorican Soul - Nuyorican Soul (1997)

Nuyorican Soul - Nuyorican Soul (1997)
Electronic, Latin, Jazz, Club/Dance | EAC Rip | FLAC, Img+CUE+LOG+Scans (PNG) | 01:14:11 | 597,77 Mb
Label: Talkin' Loud/Blue Thumb/Giant Step Records (USA) | Cat.# GSRD-1130 | Released: 1997-03-11
Nuyorican Soul - Nuyorican Soul (1997)

All-star albums are usually dodgy affairs, but the over-arching talents and, more importantly, production experience of Masters at Work's Kenny Dope and Little Louie Vega keep Nuyorican Soul from being overburdened with cooks. Roy Ayers, George Benson, and Jazzy Jeff contribute prominently to four tracks, and vocalists Jocelyn Brown and India (Vega's wife) are heard as well, but over half of the album is comprised of instrumental tracks several which include Tito Puente on vibes and timbales, flutist Dave Valentin, trumpeter Charlie Sepulveda, organist/arranger Hilton Ruiz, and trombonist Steve Turre. In keeping with Masters at Work's heritage, most of the album is Latin in feel and jazzy in composition, but with ever-present synths and piano runs that belie their heavy dance heritage. Not that it's a crowded field, but Nuyorican Soul is one of the best all-star dance albums ever recorded.
~Review by John Bush

Nuyorican Soul - Nuyorican Soul (1997)

Nuyorican Soul - Nuyorican Soul (1997)




Release of this CD: 1997, March, 11 [CD Talkin' Loud/Blue Thumb/Giant Step Records (USA), Cat.# GSRD-1130, UPC: 011105113021]
℗&© 1997 GRP Records, Inc.
Distributed in the U.S.A. by UNI Distribution Corporation
Printed/Made in the U.S.A.


Credits:

Design – Green Ink
Engineer [Live String Recording] – Arthur Stoppe, Gene Leone
Engineer [Recording & Mixing / Assistant] – Dan Yashiv, Oscar Monslave, Phil Pagano
Engineer [Recording & Mixing] – Dave Darlington, Steve Barkan
Liner Notes – Carol Cooper
Producer – Kenny "Dope" Gonzalez, "Little" Louie Vega
Sleeve [Original Concept] – Candace Strickland


Tracklist:

01. Nuyorican Soul Intro (01:24)
02. I Am The Black Gold Of The Sun (Lead Vocals by Jocelyn Brown) (05:20)
03. It's Alright, I Feel It! (Lead Vocals by Jocelyn Brown) (03:19)
04. Maw Latin Blues (06:20)
05. Gotta New Life (04:27)
06. Nautilus (Mawtilus) (07:12)
07. Taita Caneme (04:59)
08. Habriendo El Dominante (06:09)
09. Roy's Scat (Vibes and Scat Vocals by Roy Ayers) (03:07)
10. Sweet Tears (Lead Vocals and Vibes by Roy Ayers) (05:11)
11. Runaway (Lead Vocals by India) (07:54)
12. Shoshana (07:13)
13. Jazzy Jeff's Theme (02:53)
14. You Can Do It (Baby) (Lead Vocals and Guitar by George Benson) (08:43)

Exact Audio Copy V1.0 beta 3 from 29. August 2011

EAC extraction logfile from 13. October 2014, 11:53

Nuyorican Soul / Nuyorican Soul

Used drive : Memorex 52MAXX 3252AJ1 Adapter: 1 ID: 0

Read mode : Secure
Utilize accurate stream : Yes
Defeat audio cache : Yes
Make use of C2 pointers : No

Read offset correction : 6
Overread into Lead-In and Lead-Out : No
Fill up missing offset samples with silence : Yes
Delete leading and trailing silent blocks : No
Null samples used in CRC calculations : Yes
Used interface : Native Win32 interface for Win NT & 2000

Used output format : User Defined Encoder
Selected bitrate : 1024 kBit/s
Quality : High
Add ID3 tag : No
Command line compressor : C:\Program Files (x86)\Exact Audio Copy\Flac\flac.exe
Additional command line options : %ishigh%-V -p -l 12 -b 4096 -m -e -r 8%ishigh%%islow%-5%islow% –replay-gain -T "ARTIST=%artist%" -T "ALBUM=%albumtitle%" -T "TITLE=%title%" -T "DATE=%year%" -T "TRACKNUMBER=%tracknr%" -T "GENRE=%genre%" -T "ENSEMBLE=%albuminterpret%" -T "ALBUMARTIST=%albumartist%" -T "COMPOSER=%albumcomposer%" -T "DISCNUMBER=%cdnumber%" -T "TOTALDISCS=%totalcds%" -T "TOTALTRACKS=%numtracks%" -T "SOURCEMEDIA=CD" -T "COMMENT=%comment%" %hascover%-T "PICTURE=%coverfile%"%hascover% %source%


TOC of the extracted CD

Track | Start | Length | Start sector | End sector
––––––––––––––––––––––––––––-
1 | 0:00.00 | 1:24.35 | 0 | 6334
2 | 1:24.35 | 5:19.55 | 6335 | 30314
3 | 6:44.15 | 3:18.50 | 30315 | 45214
4 | 10:02.65 | 6:19.60 | 45215 | 73699
5 | 16:22.50 | 4:26.52 | 73700 | 93701
6 | 20:49.27 | 7:12.28 | 93702 | 126129
7 | 28:01.55 | 4:59.08 | 126130 | 148562
8 | 33:00.63 | 6:08.60 | 148563 | 176222
9 | 39:09.48 | 3:07.30 | 176223 | 190277
10 | 42:17.03 | 5:10.57 | 190278 | 213584
11 | 47:27.60 | 7:53.53 | 213585 | 249112
12 | 55:21.38 | 7:12.62 | 249113 | 281574
13 | 62:34.25 | 2:53.23 | 281575 | 294572
14 | 65:27.48 | 8:43.34 | 294573 | 333831


Range status and errors

Selected range

Filename C:\Users\M@ce\Music\Archives\Rips\Nuyorican Soul - Nuyorican Soul.wav

Peak level 97.7 %
Extraction speed 8.7 X
Range quality 99.9 %
Test CRC 75655EAE
Copy CRC 75655EAE
Copy OK

No errors occurred


AccurateRip summary

Track 1 accurately ripped (confidence 1) [621C2ED9] (AR v1)
Track 2 accurately ripped (confidence 1) [0C8D3050] (AR v1)
Track 3 accurately ripped (confidence 1) [B8A33A50] (AR v1)
Track 4 accurately ripped (confidence 1) [4D572CD7] (AR v1)
Track 5 accurately ripped (confidence 1) [4386570C] (AR v1)
Track 6 accurately ripped (confidence 1) [72F1F27F] (AR v1)
Track 7 accurately ripped (confidence 1) [4A3FD8CF] (AR v1)
Track 8 accurately ripped (confidence 1) [ADBEA35A] (AR v1)
Track 9 accurately ripped (confidence 1) [D94C2736] (AR v1)
Track 10 accurately ripped (confidence 1) [105277E6] (AR v1)
Track 11 accurately ripped (confidence 1) [FD782E97] (AR v1)
Track 12 accurately ripped (confidence 1) [62BA5084] (AR v1)
Track 13 accurately ripped (confidence 1) [E3558823] (AR v1)
Track 14 accurately ripped (confidence 1) [B4FDC0CD] (AR v1)

All tracks accurately ripped

End of status report

–– CUETools DB Plugin V2.1.4

[CTDB TOCID: NSFJvPKI4zgocKkPUJ.WhAXnLlw-] found
Submit result: NSFJvPKI4zgocKkPUJ.WhAXnLlw- has been confirmed
Track | CTDB Status
1 | (3/3) Accurately ripped
2 | (3/3) Accurately ripped
3 | (3/3) Accurately ripped
4 | (3/3) Accurately ripped
5 | (3/3) Accurately ripped
6 | (1/3) Accurately ripped, or (1/3) differs in 12 samples @04:40:17, or (1/3) differs in 78 samples @04:40:17,04:42:04-04:42:05
7 | (3/3) Accurately ripped
8 | (3/3) Accurately ripped
9 | (3/3) Accurately ripped
10 | (3/3) Accurately ripped
11 | (3/3) Accurately ripped
12 | (3/3) Accurately ripped
13 | (3/3) Accurately ripped
14 | (3/3) Accurately ripped


==== Log checksum 77656896A6AE9E65838998335221D4FD7010EB067D8E221B06C74B4E1AC6DB4E ====

––––––––––––––––––––––––––––––––––––––––
Analyzed: Nuyorican Soul / Nuyorican Soul
––––––––––––––––––––––––––––––––––––––––

DR Peak RMS Duration Track
––––––––––––––––––––––––––––––––––––––––
DR11 -0.20 dB -12.58 dB 1:24 01-Nuyorican Soul Intro
DR10 -0.20 dB -12.22 dB 5:20 02-I Am the Black Gold of the Sun
DR8 -0.20 dB -9.84 dB 3:19 03-It's Alright, I Feel It!
DR11 -0.20 dB -12.73 dB 6:20 04-Maw Latin Blues
DR11 -0.20 dB -13.57 dB 4:27 05-Gotta New Life
DR10 -0.20 dB -12.33 dB 7:12 06-Nautilus (Mawtilus)
DR16 -0.20 dB -20.47 dB 4:59 07-Taita caсeme
DR11 -0.20 dB -12.85 dB 6:09 08-Habriendo el dominante
DR11 -0.20 dB -12.50 dB 3:07 09-Roy's Scat
DR8 -0.20 dB -9.54 dB 5:11 10-Sweet Tears
DR9 -0.20 dB -10.99 dB 7:54 11-Runaway
DR9 -0.20 dB -10.42 dB 7:13 12-Shoshana
DR10 -0.20 dB -11.80 dB 2:53 13-Jazzy Jeff's Theme
DR8 -0.20 dB -11.05 dB 8:43 14-You Can Do It (Baby)
––––––––––––––––––––––––––––––––––––––––

Number of tracks: 14
Official DR value: DR10

Samplerate: 44100 Hz
Channels: 2
Bits per sample: 16
Bitrate: 884 kbps
Codec: FLAC
================================================================================

Thanks to my friend, M@ce

@>~Welcome To My Blog~<@

password: BlondStyle