Subcategories

Nicholas McGegan, Philharmonia Baroque Orchestra - Handel: Arianna in Creta (1999)

Posted By: ArlegZ
Nicholas McGegan, Philharmonia Baroque Orchestra - Handel: Arianna in Creta (1999)

Nicholas McGegan, Philharmonia Baroque Orchestra - Handel: Arianna in Creta (1999)
EAC | FLAC | Image (Cue & Log) ~ 942 Mb | Total time: 64:36+78:55+55:50 | Scans included
Classical | Label: NDR kultur | Recorded: 1999

Nach dieser Produktion könnte man durchaus auf den Gedanken kommen, die Oper müsse eigentlich Teseo in Creta heissen, so beherrschend und überlegen gestaltet Wilke te Brummelstroete die Partie des Teseo! Neben ihrer Fähigkeit, sich dem Stil von Händels Musik anzupassen kommt ihre ungeheure Bühnenpräsenz und Ausdruckskraft, die sie zur alles beherrschenden Figur der Oper werden liess.
Die eigentliche Hauptpartie, die der Arianna, kann da schnell als eine ungewöhnlich umfangreiche Nebenrolle verblassen. Dass dieses in Göttingen nicht geschah, ist der aussergewöhlich begabten Sopranistin Sophie Daneman zu verdanken. Trotz der "Passivität" der Rolle konnte sie allein schon durch ihre stimmlichen Möglichkeiten an Technik, Ausdruck und Modulationsfähigkeit überzeugen. Dadurch, dass ihre darstellerischen Talente aber ebenfalls ungeheuer ausgeprägt sind, gehört sie zweifelsfrei zu den begnadetsten Sängerdarstellerinnen ihres "Faches".
Als dritte "grosse" Interpretin präsentierte sich Christine Brandes in der Partie des Alceste, deren Stimme anscheinend keinerlei Schwierigkeiten kennt. Damit hatten die "guten Kräfte" der Oper eindeutig die Überhand. Cécile van de Sant kämpfte als Widersacher Tauride beherzt gegen die Übermacht des "Guten" an. Alle übrigen Partien kamen dagegen nicht aus ihrer "Nebensächlichkeit" heraus.
Als Sieger konnte sich auch das Philharmonia Baroque Orchestra aus San Francisco bei seinem mit Spannung erwarteten Europa-Debut fühlen. War man doch in den letzten Jahren nicht gerade mit überzeugenden Orchesterleistungen in der Oper verwöhnt worden, glänzte dieses amerikanische Ensemble durch seine ungeheure Einsatzbereitschaft und Musikaliät. Dass dabei ab und zu ein nicht so "perfekter" Ton durch den Raum schnellte, konnte man bei diesem Temperament gerne verschmerzen.
Nicholas McGegan, der seit 1985 musikalischer Leiter des Philharmonia Baroque Orchestra ist, das ebensosehr klassische und romantische Musik auf "Orginalinstrumenten" spielt, sorgte mit gewohntem Engagement für eine temporeiche, ausdrucksstarke und leidenschaftliche Interpretation von Händels Musik.

Performer:
Arianna in Creta - Sophie Daneman
Teseo - Wilke Te Brummeltroete
Alceste - Christine Brandes
Tauride - Cécile van de Sant
Carilda - Jennifer Lane
Re Minos - Philip Cutlip
Il Sonno - Tilman Prautsch
Philharmonia Baroque Orchestra
Conductor - Nicholas McGegan

Track List:
CD1:
01. Ouverture: [Largo] - Allegro - [Allegro]
Atto I
02. Scena 1. Recitativo (Teseo, Minos, Arianna, Carilda, Tauride): Egeo, mio genitor
03. Scena 1. Recitativo (Minos, Teseo, Arianna, Carilda, Tauride): Qual presagio funeste!
04. Scena 2. Recitativo (Tauride, Teseo): Pensa, oh Carilda
05. Scena 2. Aria (Tauride): Mirami, altero in volta
06. Scena 3. Recitativo (Teseo, Carilda, Arianna): Non si dispersi
07. Scena 3. Aria (Carilda): Dille, che nel mio seno
08. Scena 4. Recitativo (Teseo, Arianna): Pur siam soli, idol mio
09. Scena 4. Aria (Arianna): Deh! lascia un tal desio
10. Scena 5. Recitativo (Teseo, Alceste): Ma, non e questi Alceste?
11. Scena 5. Aria (Teseo): Nel pugnar col mostro infido
12. Scena 6. Recitativo (Alceste): Speriam, ma non si attenda
13. Scena 6. Aria (Alceste): Tal'or d'oscuro velo
14. Scena 7. Recitativo (Carilda, Tauride): Non piu, non piu, che l'amor
15. Scena 8. Recitativo (Minos, Tauride, Alceste, Carilda, Teseo, Arianna): Son le vittime pronte?
16. Scena 9. Recitativo (Carilda): Perdona, Alceste
17. Scena 9. Aria (Carilda): Quel cor che adora
18. Scena 10. Recitativo (Teseo, Minos, Arianna): Della patria
19. Scena 11. Recitativo (Arianna, Teseo): Valesti, al fin volesti
20. Scena 11. Aria (Teseo): Sdegnata sei con me
21. Scena 12. Recitativo (Arianna): E mi lascio il crudele?
22. Scena 12. Aria (Arianna): Sdegno, amore
CD2:
Atto II
01. Scena 1. Recitativo (Teseo): O patria! o cittadini!
02. Scena 2. Recitativo (Sonno, Teseo): Disseratevi, o porte
03. Scena 3. Recitativo (Teseo, Alceste): Ah! che pur sogno ancor!
04. Scena 3. Aria (Teseo): Salda quercia in erta balza
05. Scena 4. Recitativo (Arianna, Alceste): Alceste e qui, si tenti
06. Scena 4. Aria (Alceste): Non ha difesa, non ha consiglio
07. Scena 5. Recitativo (Arianna): Il soccorrer Carilda
08. Scena 5. Aria (Arianna): So che non e piu mio
09. Scena 6. Recitativo (Minos, Tauride, Arianna): Pensa che di Carilda
10. Scena 6. Aria (Tauride): Qual leon che fere irato
11. Scena 7. Recitativo (Tauride, Carilda, Arianna): Eh! la speme l'inganna, vieni!
12. Scena 8. Recitativo (Arianna, Carilda): Me rispettate!
13. Scena 8. Aria (Carilda): Narragli allor saprai
14. Scena 9. Recitativo (Teseo, Arianna): Idolo mio!
15. Scena 10. Recitativo (Teseo): Nelli sdegni d'Arianna
16. Scena 10. Aria (Teseo): Al fine amore, m'irriti un core
17. Scena 11. Recitativo (Tauride, Carilda): Fuggiam, fuggiam! Vieni, mia sposa
18. Scena 11. Aria (Tauride): Che se fiera poi mi nieghi
19. Scena 12. Recitativo (Carilda, Alceste): Numi, e voi lo soffrite?
20. Scena 12. Aria (Alceste): Son qual stanco pellegrino
21. Scena 13. Recitativo (Teseo, Arianna): Perdon ti chiedo
22. Scena 14. Recitativo (Tauride, Arianna, Teseo, Minos): Ov e Carilda?
23. Scena 14. Aria (Minos): Se ti condanno
24. Scena 14. Recitativo (Arianna, Teseo): Ah! silenzio spietato!
25. Scena 14. Duetto (Teseo, Arianna): Bell' idolo amato
26. Scena 15. Recitativo (Arianna): Quel crudele
27. Scena 15. Aria (Arianna): Se nel bosco resta solo
CD3:
Atto III
01. Sinfonia
02. Scena 1. Recitativo (Alceste, Carilda): Vorrai dunque, o Carilda?
03. Scena 1. Aria (Carilda): Un tenero pensiero
04. Scena 2. Recitativo (Alceste): Questa sola speranza
05. Scena 2. Aria (Alceste): Par che voglia il Ciel sereno
06. Scena 3. Recitativo (Teseo): Ove son? Qual orrore
07. Scena 3. Aria (Teseo): Qui ti sfido, o mostro infame! - Ritornello - Recitativo (Teseo): Ho vinto! - Ritornello
08. Scena 4. Recitativo (Teseo, Arianna): Arianna! / Che miro!
09. Scena 4. Aria (Arianna): Turbato il mar si vede
10. Scena 5. Recitativo (Tauride): Se il Minotauro ei vinse
11. Scena 5. Aria (Tauride): In mar tempestoso
12. Scena 6. Recitativo (Teseo, Tauride): Di te in traccia ne vengo
13. Scena 7. Recitativo (Minos, Teseo, Arianna): Vincesti, tanto basti!
14. Scena 7. Duetto (Arianna, Teseo): Mira adesso questo seno
15. Scena Ultima. Recitativo (Teseo, Arianna, Alceste, Carilda, Minos): Meta del mio gioir
16. Scena Ultima. Aria (Teseo) & Coro: Bella sorge la speranza
17. Scena Ultima. Ballo: Gavotta - Musette - Andante allegro


Exact Audio Copy V1.3 from 2. September 2016

EAC extraction logfile from 6. October 2018, 1:40

Sophie Daneman, Christine Brandes, Wilke te Brummelstroete, Cecile van de Sant, Jennifer Lane, Philip Cutlip; Nicholas McGegan / Handel - Arianna in Creta (Disc 1)

Used drive : ATAPI iHAS124 F Adapter: 1 ID: 0

Read mode : Secure
Utilize accurate stream : Yes
Defeat audio cache : Yes
Make use of C2 pointers : No

Read offset correction : 6
Overread into Lead-In and Lead-Out : No
Fill up missing offset samples with silence : Yes
Delete leading and trailing silent blocks : No
Null samples used in CRC calculations : Yes
Used interface : Native Win32 interface for Win NT & 2000

Used output format : User Defined Encoder
Selected bitrate : 1024 kBit/s
Quality : High
Add ID3 tag : No
Command line compressor : C:\Program Files (x86)\Exact Audio Copy\FLAC\FLAC.EXE
Additional command line options : -8 -V -T "TITLE=%title%" -T "ARTIST=%artist%" -T "ALBUMARTIST=%albumartist%" -T "ALBUM=%albumtitle%" -T "DATE=%year%" -T "TRACKNUMBER=%tracknr%" -T "TRACKTOTAL=%numtracks%" -T "GENRE=%genre%" -T "COMMENT=%comment%" -T "PERFORMER=%albuminterpret%" -T "COMPOSER=%composer%" %source% -o %dest%


TOC of the extracted CD

Track | Start | Length | Start sector | End sector
––––––––––––––––––––––––––––-
1 | 0:00.00 | 5:15.20 | 0 | 23644
2 | 5:15.20 | 1:34.25 | 23645 | 30719
3 | 6:49.45 | 0:35.27 | 30720 | 33371
4 | 7:24.72 | 0:34.45 | 33372 | 35966
5 | 7:59.42 | 4:23.70 | 35967 | 55761
6 | 12:23.37 | 1:10.10 | 55762 | 61021
7 | 13:33.47 | 4:41.23 | 61022 | 82119
8 | 18:14.70 | 1:03.20 | 82120 | 86864
9 | 19:18.15 | 4:23.57 | 86865 | 106646
10 | 23:41.72 | 1:00.48 | 106647 | 111194
11 | 24:42.45 | 8:55.65 | 111195 | 151384
12 | 33:38.35 | 0:29.62 | 151385 | 153621
13 | 34:08.22 | 5:52.18 | 153622 | 180039
14 | 40:00.40 | 0:16.07 | 180040 | 181246
15 | 40:16.47 | 2:36.48 | 181247 | 192994
16 | 42:53.20 | 0:20.62 | 192995 | 194556
17 | 43:14.07 | 3:02.00 | 194557 | 208206
18 | 46:16.07 | 0:52.30 | 208207 | 212136
19 | 47:08.37 | 1:54.28 | 212137 | 220714
20 | 49:02.65 | 6:30.32 | 220715 | 249996
21 | 55:33.22 | 0:20.58 | 249997 | 251554
22 | 55:54.05 | 8:39.72 | 251555 | 290551


Range status and errors

Selected range

Filename C:\EACRip\HANDEL\Handel - Arianna in Creta (Nicholas McGegan) (1999)\CD1\Handel - Arianna in Creta (Disc 1) - Nicholas McGegan.wav

Peak level 99.9 %
Extraction speed 8.8 X
Range quality 100.0 %
Test CRC A2BAA061
Copy CRC A2BAA061
Copy OK

No errors occurred


AccurateRip summary

Track 1 accurately ripped (confidence 1) [A69E90B8] (AR v2)
Track 2 accurately ripped (confidence 1) [EC3AEA46] (AR v2)
Track 3 accurately ripped (confidence 1) [545E8F21] (AR v2)
Track 4 accurately ripped (confidence 1) [62C81F4F] (AR v2)
Track 5 accurately ripped (confidence 1) [652ACF4E] (AR v2)
Track 6 accurately ripped (confidence 1) [3A1F557B] (AR v2)
Track 7 accurately ripped (confidence 1) [16B361C0] (AR v2)
Track 8 accurately ripped (confidence 1) [BA2A657E] (AR v2)
Track 9 accurately ripped (confidence 1) [95A9FEEC] (AR v2)
Track 10 accurately ripped (confidence 1) [689A9323] (AR v2)
Track 11 accurately ripped (confidence 1) [DE1605BA] (AR v2)
Track 12 accurately ripped (confidence 1) [15ED4D54] (AR v2)
Track 13 accurately ripped (confidence 1) [79722F3D] (AR v2)
Track 14 accurately ripped (confidence 1) [1FABED8B] (AR v2)
Track 15 accurately ripped (confidence 1) [0697556F] (AR v2)
Track 16 accurately ripped (confidence 1) [30E506B4] (AR v2)
Track 17 accurately ripped (confidence 1) [87FF6E12] (AR v2)
Track 18 accurately ripped (confidence 1) [1B87E2FE] (AR v2)
Track 19 accurately ripped (confidence 1) [D0A4CB43] (AR v2)
Track 20 accurately ripped (confidence 1) [85EA03D4] (AR v2)
Track 21 accurately ripped (confidence 1) [410410B9] (AR v2)
Track 22 accurately ripped (confidence 1) [5797E68F] (AR v2)

All tracks accurately ripped

End of status report

–– CUETools DB Plugin V2.1.6

[CTDB TOCID: 8my4EIrl_xkuNou6oc3pjbwbYKY-] disk not present in database
Submit result: 8my4EIrl_xkuNou6oc3pjbwbYKY- has been uploaded


==== Log checksum 49852F86A584BB2D7269BBD6B93AB534C27FD07E82397A0A08DAD190388CC05C ====


Exact Audio Copy V1.3 from 2. September 2016

EAC extraction logfile from 6. October 2018, 11:36

Sophie Daneman, Christine Brandes, Wilke te Brummelstroete, Cecile van de Sant, Jennifer Lane, Philip Cutlip; Nicholas McGegan / Handel - Arianna in Creta (Disc 2)

Used drive : ATAPI iHAS124 F Adapter: 1 ID: 0

Read mode : Secure
Utilize accurate stream : Yes
Defeat audio cache : Yes
Make use of C2 pointers : No

Read offset correction : 6
Overread into Lead-In and Lead-Out : No
Fill up missing offset samples with silence : Yes
Delete leading and trailing silent blocks : No
Null samples used in CRC calculations : Yes
Used interface : Native Win32 interface for Win NT & 2000

Used output format : User Defined Encoder
Selected bitrate : 1024 kBit/s
Quality : High
Add ID3 tag : No
Command line compressor : C:\Program Files (x86)\Exact Audio Copy\FLAC\FLAC.EXE
Additional command line options : -8 -V -T "TITLE=%title%" -T "ARTIST=%artist%" -T "ALBUMARTIST=%albumartist%" -T "ALBUM=%albumtitle%" -T "DATE=%year%" -T "TRACKNUMBER=%tracknr%" -T "TRACKTOTAL=%numtracks%" -T "GENRE=%genre%" -T "COMMENT=%comment%" -T "PERFORMER=%albuminterpret%" -T "COMPOSER=%composer%" %source% -o %dest%


TOC of the extracted CD

Track | Start | Length | Start sector | End sector
––––––––––––––––––––––––––––-
1 | 0:00.00 | 4:12.62 | 0 | 18961
2 | 4:12.62 | 1:29.58 | 18962 | 25694
3 | 5:42.45 | 1:22.65 | 25695 | 31909
4 | 7:05.35 | 6:25.22 | 31910 | 60806
5 | 13:30.57 | 0:50.65 | 60807 | 64621
6 | 14:21.47 | 4:32.48 | 64622 | 85069
7 | 18:54.20 | 0:36.02 | 85070 | 87771
8 | 19:30.22 | 7:03.63 | 87772 | 119559
9 | 26:34.10 | 1:07.22 | 119560 | 124606
10 | 27:41.32 | 5:46.70 | 124607 | 150626
11 | 33:28.27 | 0:28.18 | 150627 | 152744
12 | 33:56.45 | 1:34.45 | 152745 | 159839
13 | 35:31.15 | 3:52.20 | 159840 | 177259
14 | 39:23.35 | 1:11.37 | 177260 | 182621
15 | 40:34.72 | 0:17.53 | 182622 | 183949
16 | 40:52.50 | 5:33.35 | 183950 | 208959
17 | 46:26.10 | 0:51.35 | 208960 | 212819
18 | 47:17.45 | 1:36.52 | 212820 | 220071
19 | 48:54.22 | 1:25.63 | 220072 | 226509
20 | 50:20.10 | 9:00.12 | 226510 | 267021
21 | 59:20.22 | 0:31.48 | 267022 | 269394
22 | 59:51.70 | 1:23.17 | 269395 | 275636
23 | 61:15.12 | 3:10.40 | 275637 | 289926
24 | 64:25.52 | 0:13.45 | 289927 | 290946
25 | 64:39.22 | 3:54.30 | 290947 | 308526
26 | 68:33.52 | 0:17.50 | 308527 | 309851
27 | 68:51.27 | 10:01.48 | 309852 | 354974


Range status and errors

Selected range

Filename C:\EACRip\HANDEL\Handel - Arianna in Creta (Nicholas McGegan) (1999)\CD2\Handel - Arianna in Creta (Disc 2) - Nicholas McGegan.wav

Peak level 98.6 %
Extraction speed 9.9 X
Range quality 99.9 %
Test CRC 41708AE7
Copy CRC 41708AE7
Copy OK

No errors occurred


AccurateRip summary

Track 1 accurately ripped (confidence 1) [00E485C1] (AR v2)
Track 2 accurately ripped (confidence 1) [0D38581E] (AR v2)
Track 3 accurately ripped (confidence 1) [4A179E9D] (AR v2)
Track 4 accurately ripped (confidence 1) [0D88013C] (AR v2)
Track 5 accurately ripped (confidence 1) [02069331] (AR v2)
Track 6 accurately ripped (confidence 1) [8F8F3303] (AR v2)
Track 7 accurately ripped (confidence 1) [BD0EEBA4] (AR v2)
Track 8 accurately ripped (confidence 1) [F581C9C4] (AR v2)
Track 9 accurately ripped (confidence 1) [D0FEA33B] (AR v2)
Track 10 accurately ripped (confidence 1) [3F077709] (AR v2)
Track 11 accurately ripped (confidence 1) [0554A802] (AR v2)
Track 12 accurately ripped (confidence 1) [65ECAD02] (AR v2)
Track 13 accurately ripped (confidence 1) [A9B3363F] (AR v2)
Track 14 accurately ripped (confidence 1) [045980EC] (AR v2)
Track 15 accurately ripped (confidence 1) [C86C0BC2] (AR v2)
Track 16 accurately ripped (confidence 1) [752EB785] (AR v2)
Track 17 accurately ripped (confidence 1) [D01AFA98] (AR v2)
Track 18 accurately ripped (confidence 1) [42A40EBB] (AR v2)
Track 19 accurately ripped (confidence 1) [42F22FE5] (AR v2)
Track 20 accurately ripped (confidence 1) [2821B649] (AR v2)
Track 21 accurately ripped (confidence 1) [92E81B8C] (AR v2)
Track 22 accurately ripped (confidence 1) [D56FDED9] (AR v2)
Track 23 accurately ripped (confidence 1) [F0EDC36E] (AR v2)
Track 24 accurately ripped (confidence 1) [7A4040FE] (AR v2)
Track 25 accurately ripped (confidence 1) [71F76770] (AR v2)
Track 26 accurately ripped (confidence 1) [7710FFA7] (AR v2)
Track 27 accurately ripped (confidence 1) [CE6F6A3C] (AR v2)

All tracks accurately ripped

End of status report

–– CUETools DB Plugin V2.1.6

[CTDB TOCID: j_l.KP3iX.2h4AlSVdv2fnc1qCE-] disk not present in database
Submit result: j_l.KP3iX.2h4AlSVdv2fnc1qCE- has been uploaded


==== Log checksum 4C9016CF6593AF631095323488414A6ABF3281CD11EFE863670696DFE6EFA4B3 ====


Exact Audio Copy V1.3 from 2. September 2016

EAC extraction logfile from 6. October 2018, 12:23

Sophie Daneman, Christine Brandes, Wilke te Brummelstroete, Cecile van de Sant, Jennifer Lane, Philip Cutlip; Nicholas McGegan / Handel - Arianna in Creta (Disc 3)

Used drive : ATAPI iHAS124 F Adapter: 1 ID: 0

Read mode : Secure
Utilize accurate stream : Yes
Defeat audio cache : Yes
Make use of C2 pointers : No

Read offset correction : 6
Overread into Lead-In and Lead-Out : No
Fill up missing offset samples with silence : Yes
Delete leading and trailing silent blocks : No
Null samples used in CRC calculations : Yes
Used interface : Native Win32 interface for Win NT & 2000

Used output format : User Defined Encoder
Selected bitrate : 1024 kBit/s
Quality : High
Add ID3 tag : No
Command line compressor : C:\Program Files (x86)\Exact Audio Copy\FLAC\FLAC.EXE
Additional command line options : -8 -V -T "TITLE=%title%" -T "ARTIST=%artist%" -T "ALBUMARTIST=%albumartist%" -T "ALBUM=%albumtitle%" -T "DATE=%year%" -T "TRACKNUMBER=%tracknr%" -T "TRACKTOTAL=%numtracks%" -T "GENRE=%genre%" -T "COMMENT=%comment%" -T "PERFORMER=%albuminterpret%" -T "COMPOSER=%composer%" %source% -o %dest%


TOC of the extracted CD

Track | Start | Length | Start sector | End sector
––––––––––––––––––––––––––––-
1 | 0:00.00 | 1:19.30 | 0 | 5954
2 | 1:19.30 | 1:04.35 | 5955 | 10789
3 | 2:23.65 | 3:52.65 | 10790 | 28254
4 | 6:16.55 | 0:19.37 | 28255 | 29716
5 | 6:36.17 | 5:29.00 | 29717 | 54391
6 | 12:05.17 | 1:18.30 | 54392 | 60271
7 | 13:23.47 | 5:56.25 | 60272 | 86996
8 | 19:19.72 | 1:33.15 | 86997 | 93986
9 | 20:53.12 | 5:07.18 | 93987 | 117029
10 | 26:00.30 | 0:28.05 | 117030 | 119134
11 | 26:28.35 | 5:22.05 | 119135 | 143289
12 | 31:50.40 | 0:31.62 | 143290 | 145676
13 | 32:22.27 | 2:27.53 | 145677 | 156754
14 | 34:50.05 | 7:29.37 | 156755 | 190466
15 | 42:19.42 | 0:47.50 | 190467 | 194041
16 | 43:07.17 | 6:22.50 | 194042 | 222741
17 | 49:29.67 | 6:19.05 | 222742 | 251171


Range status and errors

Selected range

Filename C:\EACRip\HANDEL\Handel - Arianna in Creta (Nicholas McGegan) (1999)\CD3\Handel - Arianna in Creta (Disc 3) - Nicholas McGegan.wav

Peak level 99.9 %
Extraction speed 8.5 X
Range quality 100.0 %
Test CRC 77A31183
Copy CRC 77A31183
Copy OK

No errors occurred


AccurateRip summary

Track 1 accurately ripped (confidence 1) [1BCCC885] (AR v2)
Track 2 accurately ripped (confidence 1) [FF06D6C6] (AR v2)
Track 3 accurately ripped (confidence 1) [B690D2F5] (AR v2)
Track 4 accurately ripped (confidence 1) [15D828B9] (AR v2)
Track 5 accurately ripped (confidence 1) [BE19BB9E] (AR v2)
Track 6 accurately ripped (confidence 1) [F2C34C27] (AR v2)
Track 7 accurately ripped (confidence 1) [3778D369] (AR v2)
Track 8 accurately ripped (confidence 1) [18ED99CC] (AR v2)
Track 9 accurately ripped (confidence 1) [4FFDE439] (AR v2)
Track 10 accurately ripped (confidence 1) [EAAD5D6F] (AR v2)
Track 11 accurately ripped (confidence 1) [675CA9B9] (AR v2)
Track 12 accurately ripped (confidence 1) [907EE347] (AR v2)
Track 13 accurately ripped (confidence 1) [085E6856] (AR v2)
Track 14 accurately ripped (confidence 1) [1D797EF3] (AR v2)
Track 15 accurately ripped (confidence 1) [52B29EBB] (AR v2)
Track 16 accurately ripped (confidence 1) [8A44B57F] (AR v2)
Track 17 accurately ripped (confidence 1) [EAD44635] (AR v2)

All tracks accurately ripped

End of status report

–– CUETools DB Plugin V2.1.6

[CTDB TOCID: FLfapX7rWw6YQCCM9PsV9jkn.UY-] disk not present in database
Submit result: FLfapX7rWw6YQCCM9PsV9jkn.UY- has been uploaded


==== Log checksum 02045D61580444DB37A8E7246A981C82DB905DA7FA73307C4F3B60603241393C ====

Nicholas McGegan, Philharmonia Baroque Orchestra - Handel: Arianna in Creta (1999)

Thanks to the original releaser