Subcategories

Neeme Järvi - Stenhammar: Serenade, Op. 31 (1985)

Posted By: tirexiss
Neeme Järvi - Stenhammar: Serenade, Op. 31 (1985)

Neeme Järvi - Stenhammar: Serenade, Op. 31 (1985)
EAC | FLAC (image+.cue, log) | Covers Included | 43:35 | 186 MB
Genre: Classical | Label: BIS | Catalog: 310

Wilhelm Stenhammar’s Serenade is unquestionably an orchestral masterpiece, one of two that he wrote (the other being the Second Symphony), and this remains its finest recording. Järvi remade the work for DG, and very well too, with this same orchestra, but as is so often the case the second effort doesn’t quite measure up to the initial outing. In the first place, this performance includes the “Reverenza” movement that Stenhammar later deleted. It’s a charming minuet, and since it’s followed by the Canzonetta, a slow waltz, it’s easy to understand why he decided, however reluctantly, to leave it out. I’m not entirely sure it fits here as the second movement–that means a lot of slow music between the opening Overture and the Scherzo–but it’s still good to have and you can always just skip it if the result turns out to be boring in your opinion.
Second, Järvi offers the most exciting and rambunctious performance of the Scherzo yet recorded. This movement really can and should be a virtuoso extravaganza, and here it has a huge impact, assisted in no small degree by some of the best recorded sound that BIS ever managed in Gothenburg. The rich bass, wide dynamic range, and superb balances permit Järvi and his players to let it rip in thrilling fashion. Add to that a lovely, flowing Notturno and a meaty, muscular finale and the result is one of the glories of the BIS catalog. The Serenade has been lucky on disc, and has received a striking number of fine recordings, but this is the one to own to get to know the work. – David Hurwitz

Neeme Järvi - Stenhammar: Serenade, Op. 31 (1985)

Track List:

01. Serenade for orchestra in F major, Op. 31- I. Overtura. Allegrissimo [0:07:01.37]
02. Serenade for orchestra in F major, Op. 31- II. Reverenza. Tempo di menuetto, tranquillo e grazioso [0:07:02.00]
03. Serenade for orchestra in F major, Op. 31- III. Canzonetta. Tempo di valse, ma poco tranquillo [0:06:35.00]
04. Serenade for orchestra in F major, Op. 31- IV. Scherzo. Presto [0:06:48.00]
05. Serenade for orchestra in F major, Op. 31- V. Notturno. Andante sostenuto [0:07:31.00]
06. Serenade for orchestra in F major, Op. 31- VI. Finale. Tempo moderato [0:08:36.00]

Performers:
The Gothenburg Symphony Orchestra
Neeme Järvi - conductor

Exact Audio Copy V1.0 beta 3 from 29. August 2011

EAC extraction logfile from 25. July 2013, 12:14

Neeme Järvi / Stenhammar - Serenade - Neeme Järvi

Used drive : TSSTcorpCDDVDW SH-222BB Adapter: 2 ID: 1

Read mode : Secure
Utilize accurate stream : Yes
Defeat audio cache : Yes
Make use of C2 pointers : No

Read offset correction : 6
Overread into Lead-In and Lead-Out : No
Fill up missing offset samples with silence : Yes
Delete leading and trailing silent blocks : No
Null samples used in CRC calculations : Yes
Used interface : Native Win32 interface for Win NT & 2000

Used output format : User Defined Encoder
Selected bitrate : 1024 kBit/s
Quality : High
Add ID3 tag : No
Command line compressor : C:\Program Files\Exact Audio Copy\Flac\flac.exe
Additional command line options : -8 -V -T "TITLE=%title%" -T "ARTIST=%artist%" -T "ALBUMARTIST=%albumartist%" -T "ALBUM=%albumtitle%" -T "DATE=%year%" -T "TRACKNUMBER=%tracknr%" -T "TRACKTOTAL=%numtracks%" -T "GENRE=%genre%" -T "COMMENT=%comment%" -T "PERFORMER=%albuminterpret%" -T "COMPOSER=%composer%" %source% -o %dest%


TOC of the extracted CD

Track | Start | Length | Start sector | End sector
––––––––––––––––––––––––––––-
1 | 0:00.00 | 7:01.37 | 0 | 31611
2 | 7:01.37 | 7:02.00 | 31612 | 63261
3 | 14:03.37 | 6:35.00 | 63262 | 92886
4 | 20:38.37 | 6:48.00 | 92887 | 123486
5 | 27:26.37 | 7:31.00 | 123487 | 157311
6 | 34:57.37 | 8:36.00 | 157312 | 196011


Range status and errors

Selected range

Filename G:\Ripped general\[2315] Stenhammar – Serenade – Neeme Järvi\Stenhammar - Serenade - Neeme Järvi.wav

Peak level 100.0 %
Extraction speed 6.5 X
Range quality 99.9 %
Test CRC 92A1535A
Copy CRC 92A1535A
Copy OK

No errors occurred


AccurateRip summary

Track 1 not present in database
Track 2 not present in database
Track 3 not present in database
Track 4 not present in database
Track 5 not present in database
Track 6 not present in database

None of the tracks are present in the AccurateRip database

End of status report

Thanks to the Original ripper (unknown)!

Welcome to my blog!

Download: