Subcategories

Paul Agnew, Les Arts Florissants - Monteverdi: L'Orfeo (2017) [BDRip]

Posted By: Vilboa
Paul Agnew, Les Arts Florissants - Monteverdi: L'Orfeo (2017) [BDRip]

Paul Agnew, Les Arts Florissants - Monteverdi: L'Orfeo (2017) [BDRip]
BluRay-rip | AVC | MKV 1920x1080 / 4972 kbps / 23.976 fps | 104 min | 4,11 Gb
Audio: Italiano / AC3 / 6ch / 48.0 KHz / 640 Kbps
Classical | Harmonia Mundi | Sub: Italian, French, English, German

Following on logically from his complete cycle of Monteverdi madrigals, Paul Agnew – here both conductor and stage director – presents his intimate and ‘sacred’ version of the composer’s first opera (and the first great opera in musical history). In a fine collective spirit, the singers and instrumentalists of Les Arts Florissants participate in the drama on equal terms, mingling in a single set that gives increased prominence to the (masterly) lighting and to the protagonists (overwhelmingly moving in their restrained movements and expressions): we are transported to the very heart of Monteverdi’s masterpiece, as if we had fallen into a painting by Nicolas Poussin, caught up in the mystical adventure of two lovers more mythical than ever.

Cast:
Cyril Auvity (Orfeo)
Hannah Morrison (Euridice/La Musica)
Paul Agnew (Apollo, Eco)
Miriam Allan (Proserpina/Ninfa)
Lea Desandre (Messaggiera/Speranza)
Carlo Vistoli (Spirito infernale/Pastore)
Sean Clayton (Pastore)
Zachary Wilder (Spirito infernale/Pastore)
Antonio Abete (Pultone/Spirito infernale/Pastore)
Cyril Costanzo (Caronte/Spirito infernale)
Les Arts Florissants
Paul Agnew, direction musicale & mise en scene


General
Unique ID : 170948030233015293450287231099005063579 (0x809B649E017F15B08CA4DAE4CA8C519B)
Complete name : C:\L'Orfeo.mkv
Format : Matroska
Format version : Version 2
File size : 4.11 GiB
Duration : 1h 44mn
Overall bit rate : 5 658 Kbps
Movie name : L Orfeo
Encoded date : UTC 2020-03-24 16:50:17
Writing application : DVDFab 9.1.6.8
Writing library : libebml v0.7.8 + libmatroska v0.8.1

Video
ID : 1
Format : AVC
Format/Info : Advanced Video Codec
Format profile : High@L4.1
Format settings, CABAC : Yes
Format settings, ReFrames : 2 frames
Codec ID : V_MPEG4/ISO/AVC
Duration : 1h 44mn
Bit rate : 4 972 Kbps
Width : 1 920 pixels
Height : 1 080 pixels
Display aspect ratio : 16:9
Frame rate mode : Constant
Frame rate : 23.976 fps
Color space : YUV
Chroma subsampling : 4:2:0
Bit depth : 8 bits
Scan type : Progressive
Bits/(Pixel*Frame) : 0.100
Stream size : 3.57 GiB (87%)
Writing library : x264 core 142
Encoding settings : cabac=1 / ref=1 / deblock=1:-1:-1 / analyse=0x3:0 / me=hex / subme=5 / psy=0 / mixed_ref=0 / me_range=16 / chroma_me=1 / trellis=0 / 8x8dct=1 / cqm=0 / deadzone=21,11 / fast_pskip=1 / chroma_qp_offset=0 / threads=8 / lookahead_threads=2 / sliced_threads=0 / nr=0 / decimate=1 / interlaced=0 / bluray_compat=0 / constrained_intra=0 / bframes=2 / b_pyramid=0 / b_adapt=1 / b_bias=0 / direct=1 / weightb=1 / open_gop=0 / weightp=0 / keyint=24 / keyint_min=13 / scenecut=40 / intra_refresh=0 / rc=abr / mbtree=0 / bitrate=4972 / ratetol=1.0 / qcomp=0.60 / qpmin=0 / qpmax=69 / qpstep=4 / ip_ratio=1.40 / pb_ratio=1.30 / aq=1:1.00
Default : Yes
Forced : No
Color primaries : BT.709
Transfer characteristics : BT.709
Matrix coefficients : BT.709
Color range : Limited

Audio
ID : 2
Format : AC-3
Format/Info : Audio Coding 3
Mode extension : CM (complete main)
Format settings, Endianness : Big
Codec ID : A_AC3
Duration : 1h 44mn
Bit rate mode : Constant
Bit rate : 640 Kbps
Channel(s) : 6 channels
Channel positions : Front: L C R, Side: L R, LFE
Sampling rate : 48.0 KHz
Bit depth : 16 bits
Compression mode : Lossy
Stream size : 476 MiB (11%)
Language : Italian
Default : Yes
Forced : No

Text #1
ID : 3
Format : VobSub
Codec ID : S_VOBSUB
Codec ID/Info : The same subtitle format used on DVDs
Language : Italian
Default : Yes
Forced : No

Text #2
ID : 4
Format : VobSub
Codec ID : S_VOBSUB
Codec ID/Info : The same subtitle format used on DVDs
Language : French
Default : No
Forced : No

Text #3
ID : 5
Format : VobSub
Codec ID : S_VOBSUB
Codec ID/Info : The same subtitle format used on DVDs
Language : English
Default : No
Forced : No

Text #4
ID : 6
Format : VobSub
Codec ID : S_VOBSUB
Codec ID/Info : The same subtitle format used on DVDs
Language : German
Default : No
Forced : No

Menu
00:00:00.000 : en:Chapter 01
00:00:57.223 : en:Chapter 02
00:02:42.996 : en:Chapter 03
00:07:36.456 : en:Chapter 04
00:13:59.255 : en:Chapter 05
00:23:42.921 : en:Chapter 06
00:29:23.595 : en:Chapter 07
00:31:19.335 : en:Chapter 08
00:34:36.866 : en:Chapter 09
00:37:01.510 : en:Chapter 10
00:46:11.351 : en:Chapter 11
00:53:25.911 : en:Chapter 12
01:04:46.507 : en:Chapter 13
01:10:29.225 : en:Chapter 14
01:17:41.907 : en:Chapter 15
01:24:59.594 : en:Chapter 16
01:33:21.053 : en:Chapter 17

Paul Agnew, Les Arts Florissants - Monteverdi: L'Orfeo (2017) [BDRip]