Subcategories

Mildlife - Phase (2018) [Japanese Edition]

Posted By: gribovar
Mildlife - Phase (2018) [Japanese Edition]

Mildlife - Phase (2018) [Japanese Edition]
EAC Rip | FLAC (image+.cue+log) - 326 MB | MP3 CBR 320 kbps (LAME 3.93) - 121 MB | Covers - 174 MB
Genre: Jazz-Funk, Psychedelic Rock, Electronic | RAR 3% Rec. | Label: P-Vine Records (PCD-20397)

Narrowing down Mildlife’s style into a genre is almost impossible, as they bond over the desire to push musical boundaries. No strangers to the Melbourne band scene, the four old friends have been drawing crowds through an epic journey at intimate venues and festivals for the best part of the past 4 years. Developing a tight live show bolstered by wild improvisation, the group have left punters itching for their first full length studio album "Phase" that mines jazz, psych and disco for its irresistible groove.
Capturing the spirit of the band, debut LP of kaleidoscope jams is the interplanetary path between jazz, funk and disco with the perfect amalgamation of cosmic electronics and soulful acoustic instrumentation.
Tracklist:
01. The Magnificent Moon
02. Zwango Zop
03. Im Blau
04. Phase
05. Two Horizons
06. The Gloves Don't Bite
07. Phase II (Bonus track)

Total time: 51:24

Exact Audio Copy V1.3 from 2. September 2016

Отчёт EAC об извлечении, выполненном 18. октября 2020, 14:01

Mildlife / Phase

Дисковод: HL-DT-STDVDRAM GT70N Adapter: 1 ID: 0

Режим чтения : Достоверность
Использование точного потока : Да
Отключение кэша аудио : Да
Использование указателей C2 : Нет

Коррекция смещения при чтении : 103
Способность читать области Lead-in и Lead-out : Нет
Заполнение пропущенных сэмплов тишиной : Да
Удаление блоков с тишиной в начале и конце : Нет
При вычислениях CRC использовались нулевые сэмплы : Да
Интерфейс : Встроенный Win32-интерфейс для Win NT/2000

Выходной формат : Пользовательский кодировщик
Выбранный битрейт : 1024 kBit/s
Качество : Высокий
Добавление ID3-тега : Нет
Утилита сжатия : C:\Program Files (x86)\Exact Audio Copy\Flac\flac.exe
Дополнительные параметры : -V -8 -T "Date=%year%" -T "Genre=%genre%" %source%


TOC извлечённого CD

Трек | Старт | Длительность | Начальный сектор | Конечный сектор
––––––––––––––––––––––––––––––––––-
1 | 0:00.00 | 8:52.05 | 0 | 39904
2 | 8:52.05 | 4:49.21 | 39905 | 61600
3 | 13:41.26 | 7:08.33 | 61601 | 93733
4 | 20:49.59 | 6:19.39 | 93734 | 122197
5 | 27:09.23 | 6:04.31 | 122198 | 149528
6 | 33:13.54 | 6:47.66 | 149529 | 180119
7 | 40:01.45 | 11:22.56 | 180120 | 231325


Характеристики диапазона извлечения и сообщения об ошибках

Выбранный диапазон

Имя файла D:\Mildlife - Phase (2018) CD\Mildlife - Phase.wav

Пиковый уровень 98.8 %
Скорость извлечения 3.6 X
Качество диапазона 100.0 %
CRC теста 9E3E122C
CRC копии 9E3E122C
Копирование… OK

Ошибок не произошло


AccurateRip: сводка

Трек 1 : извлечено точно (доверие 4) [84DF6962] (AR v2)
Трек 2 : извлечено точно (доверие 4) [9AD620D8] (AR v2)
Трек 3 : извлечено точно (доверие 4) [51307517] (AR v2)
Трек 4 : извлечено точно (доверие 4) [CC8F2FE0] (AR v2)
Трек 5 : извлечено точно (доверие 4) [FD2474CF] (AR v2)
Трек 6 : извлечено точно (доверие 4) [36091F35] (AR v2)
Трек 7 : извлечено точно (доверие 4) [256F0985] (AR v2)

Все треки извлечены точно

Конец отчёта

–– CUETools DB Plugin V2.1.6

[CTDB TOCID: j_oq9x33XoF.QP2Log0EGwqnuNg-] found
Submit result: j_oq9x33XoF.QP2Log0EGwqnuNg- has been confirmed
Track | CTDB Status
1 | (10/10) Accurately ripped
2 | (10/10) Accurately ripped
3 | (10/10) Accurately ripped
4 | (10/10) Accurately ripped
5 | (10/10) Accurately ripped
6 | (10/10) Accurately ripped
7 | (10/10) Accurately ripped


==== Контрольная сумма отчёта 6B87B26728A7EB8AF308B55EF87461833641D5413F69ACD43EB428FF9D37E7A8 ====

[CUETools log; Date: 18.10.2020 20:21:46; Version: 2.1.4]
[CTDB TOCID: j_oq9x33XoF.QP2Log0EGwqnuNg-] found.
Track | CTDB Status
1 | (11/11) Accurately ripped
2 | (11/11) Accurately ripped
3 | (11/11) Accurately ripped
4 | (11/11) Accurately ripped
5 | (11/11) Accurately ripped
6 | (11/11) Accurately ripped
7 | (11/11) Accurately ripped
[AccurateRip ID: 000d674d-00503f9a-500c0c07] found.
Track [ CRC | V2 ] Status
01 [0ee4e2cf|84df6962] (0+4/4) Accurately ripped
02 [4eaa0a60|9ad620d8] (0+4/4) Accurately ripped
03 [5893ace7|51307517] (0+4/4) Accurately ripped
04 [7c0e4e2f|cc8f2fe0] (0+4/4) Accurately ripped
05 [c05beb89|fd2474cf] (0+4/4) Accurately ripped
06 [b871534d|36091f35] (0+4/4) Accurately ripped
07 [33b4f0f8|256f0985] (0+4/4) Accurately ripped

Track Peak [ CRC32 ] [W/O NULL] [ LOG ]
– 98,8 [9E3E122C] [A557AA29] CRC32
01 98,8 [436CFAA2] [2473FD90]
02 93,3 [D3AF24C2] [C90C6A55]
03 98,8 [F77BDAE2] [525CAEF7]
04 98,8 [266CB602] [ADCE00EA]
05 98,8 [A9A22036] [BDABF4E6]
06 98,8 [C08A9BB7] [1EDF3C5F]
07 98,8 [FDA463D8] [0EA1B056]

Thanks to verbiya