Subcategories

Michael Learns To Rock - Still (2018)

Posted By: BlondStyle
Michael Learns To Rock - Still (2018)

Michael Learns To Rock - Still (2018)
Rock, Pop Rock, Soft Rock | EAC Rip | FLAC, Img+CUE+LOG+Full Scans (PNG) | 36:34 | 346,25 Mb
Label: MLTR Music (Denmark) | Cat.# none | Released: 2018-03-21
Michael Learns To Rock - Still (2018)

"Still" (stylized as STILL) is the 9th studio album by Danish soft rock band Michael Learns to Rock. It was released digitally on March 21, 2018 and in limited physical copies two weeks later on April 4, 2018. The band had been working on their new record over the course of 2017 and into early 2018. In late January 2018, the band organized a competition over their social media platforms for the title of their upcoming album. Over the course of the week, they released the titles of the songs slated to be released through their new record. On February 2, 2018, the band released a new single titled “Everything You Need”. After the contest, the band announced its winner, as well as the title of their 9th studio album, STILL. Released on March 21, 2018 through digital music platforms and on limited physical copies, the album features songs that sound like “Michael Learns to Rock but [it] sounds like today,” according to Wanscher.
~Wikipedia

Michael Learns To Rock - Still (2018)

Michael Learns To Rock - Still (2018)




Release of this album/CD: 2018, March, 21 [CD MLTR Music (Denmark), Cat.# none, UPC: none]
2018 MLTR Music

Credits:

Design [Cover] – Mark Toxværd Rasmussen
Drums, Percussion – Kåre Wanscher
Guitar – Mikkel Lentz
Lacquer Cut By – J.C.
Producer, Mixed By – Søren Mikkelsen
Vocals, Keyboards – Jascha Richter


Tracklist:

01. Everything You Need (03:49)
02. The Best Of Me (03:14)
03. Youll Be Mine (03:35)
04. When I Look Around (03:36)
05. Hiding Away From Life (03:38)
06. Hold On A Mitue (04:11)
07. When Wrong Is Right (03:56)
08. One Laste Summer Night (03:20)
09. Stranger In My Heart (03:25)
10. Unconcerned (03:51)

Exact Audio Copy V1.1 from 23. June 2015

EAC extraction logfile from 10. January 2019, 22:38

Mltr / Still

Used drive : PLEXTOR BDDVDRPX-B330SA Adapter: 3 ID: 0

Read mode : Secure
Utilize accurate stream : Yes
Defeat audio cache : Yes
Make use of C2 pointers : No

Read offset correction : 702
Overread into Lead-In and Lead-Out : No
Fill up missing offset samples with silence : Yes
Delete leading and trailing silent blocks : No
Null samples used in CRC calculations : Yes
Used interface : Installed external ASPI interface

Used output format : User Defined Encoder
Selected bitrate : 896 kBit/s
Quality : High
Add ID3 tag : No
Command line compressor : C:\Program Files (x86)\Exact Audio Copy\Flac\flac.exe
Additional command line options : -V -8 -T "Date=%year%" -T "Genre=%genre%" %source%


TOC of the extracted CD

Track | Start | Length | Start sector | End sector
––––––––––––––––––––––––––––-
1 | 0:00.46 | 3:48.45 | 46 | 17190
2 | 3:49.16 | 3:13.44 | 17191 | 31709
3 | 7:02.60 | 3:35.30 | 31710 | 47864
4 | 10:38.15 | 3:35.53 | 47865 | 64042
5 | 14:13.68 | 3:37.45 | 64043 | 80362
6 | 17:51.38 | 4:10.49 | 80363 | 99161
7 | 22:02.12 | 3:56.15 | 99162 | 116876
8 | 25:58.27 | 3:19.63 | 116877 | 131864
9 | 29:18.15 | 3:24.44 | 131865 | 147208
10 | 32:42.59 | 3:51.33 | 147209 | 164566


Range status and errors

Selected range

Filename E:\flac\Michael Learns To Rock - Jascha Richter Collection 11CD\Michael Learns To Rock\2018 Michael Learns To Rock - Still\Mltr - Still.wav

Peak level 90.1 %
Extraction speed 1.6 X
Range quality 99.9 %
Test CRC A3043FB5
Copy CRC A3043FB5
Copy OK

No errors occurred


AccurateRip summary

Track 1 accurately ripped (confidence 2) [9E9FCA45] (AR v2)
Track 2 accurately ripped (confidence 2) [C5917737] (AR v2)
Track 3 accurately ripped (confidence 2) [07AAC71E] (AR v2)
Track 4 accurately ripped (confidence 2) [7418B9B3] (AR v2)
Track 5 accurately ripped (confidence 2) [F327CFDB] (AR v2)
Track 6 accurately ripped (confidence 2) [78144FE7] (AR v2)
Track 7 accurately ripped (confidence 2) [20D8A9EA] (AR v2)
Track 8 accurately ripped (confidence 2) [D50C147B] (AR v2)
Track 9 accurately ripped (confidence 2) [EAE8AB56] (AR v2)
Track 10 accurately ripped (confidence 2) [DBC59609] (AR v2)

All tracks accurately ripped

End of status report

–– CUETools DB Plugin V2.1.6

[CTDB TOCID: e4QNCC0ZB04ARdEhBGmA303bP7Y-] found
Submit result: e4QNCC0ZB04ARdEhBGmA303bP7Y- has been confirmed
Track | CTDB Status
1 | (4/4) Accurately ripped
2 | (4/4) Accurately ripped
3 | (4/4) Accurately ripped
4 | (4/4) Accurately ripped
5 | (4/4) Accurately ripped
6 | (4/4) Accurately ripped
7 | (4/4) Accurately ripped
8 | (4/4) Accurately ripped
9 | (4/4) Accurately ripped
10 | (4/4) Accurately ripped


==== Log checksum A8AA2A81B06A1E866D17E62D5F6073ADCF967608557D6098BF7C8E63A6B328DB ====

––––––––––––––––––––––––––––––––––––––––
Analyzed: Mltr / Still
––––––––––––––––––––––––––––––––––––––––

DR Peak RMS Duration Track
––––––––––––––––––––––––––––––––––––––––
DR7 -0.90 dB -9.57 dB 3:49 01-Everything You Need
DR8 -0.90 dB -11.08 dB 3:14 02-The Best Of Me
DR8 -0.90 dB -9.51 dB 3:35 03-Youll Be Mine
DR8 -0.90 dB -10.66 dB 3:36 04-When I Look Around
DR7 -0.90 dB -9.76 dB 3:38 05-Hiding Away From Life
DR6 -0.90 dB -8.05 dB 4:11 06-Hold On A Mitue
DR7 -0.90 dB -9.68 dB 3:56 07-When Wrong Is Right
DR7 -0.90 dB -9.18 dB 3:20 08-One Laste Summer Night
DR8 -0.90 dB -11.13 dB 3:25 09-Stranger In My Heart
DR8 -0.90 dB -10.81 dB 3:51 10-Unconcerned
––––––––––––––––––––––––––––––––––––––––

Number of tracks: 10
Official DR value: DR7

Samplerate: 44100 Hz
Channels: 2
Bits per sample: 16
Bitrate: 940 kbps
Codec: FLAC
================================================================================

Thanks to Konstantin_slash

@>~Welcome To My Blog~<@

password: BlondStyle