Tags
Language
Tags

Maynard Ferguson - Maynard Ferguson Octet (1955) [Reissue 2008]

Posted By:
Maynard Ferguson - Maynard Ferguson Octet (1955) [Reissue 2008]

Maynard Ferguson - Maynard Ferguson Octet (1955) [Reissue 2008]
EAC Rip | FLAC (image+.cue+log) - 144 MB | MP3 CBR 320 kbps (LAME 3.93) - 93 MB | Covers - 47 MB
Genre: Jazz, Big Band | RAR 3% Rec. | Label: Verve Records (0602517685710)

Maynard Ferguson Octet is an album by Canadian jazz trumpeter/trombonist Maynard Ferguson featuring tracks recorded at Capitol Studios, Los Angeles, CA. (tracks 1-5) April 25th 1955, (tracks 6-8) April 27th 1955 and originally released on the EmArcy label 1955. This early triumph from the solo career of the brilliant trumpeter remains bewilderingly rare - it's an avowed West Coast-jazz classic but it's been out of print for years. Verve Originals re-issued this 2008.
Tracklist:
01. Finger Snappin'
02. My New Flame
03. Automn Leaves
04. Inter-Space
05. 20, Rue De Madrid
06. Super-G
07. What Was Her Name?
08. Yeah

Total time: 39:49

Exact Audio Copy V0.99 prebeta 4 from 23. January 2008

EAC extraction logfile from 20. September 2008, 18:59

Maynard Ferguson / Maynard Ferguson and his Octet

Used drive : PHILIPS SPD3400CC Adapter: 2 ID: 3

Read mode : Secure
Utilize accurate stream : Yes
Defeat audio cache : Yes
Make use of C2 pointers : No

Read offset correction : 6
Overread into Lead-In and Lead-Out : No
Fill up missing offset samples with silence : Yes
Delete leading and trailing silent blocks : No
Null samples used in CRC calculations : Yes
Used interface : Installed external ASPI interface

Used output format : Internal WAV Routines
Sample format : 44.100 Hz; 16 Bit; Stereo


TOC of the extracted CD

Track | Start | Length | Start sector | End sector
––––––––––––––––––––––––––––-
1 | 0:00.00 | 3:55.35 | 0 | 17659
2 | 3:55.35 | 4:09.67 | 17660 | 36401
3 | 8:05.27 | 3:20.02 | 36402 | 51403
4 | 11:25.29 | 3:35.07 | 51404 | 67535
5 | 15:00.36 | 5:06.38 | 67536 | 90523
6 | 20:06.74 | 7:39.59 | 90524 | 125007
7 | 27:46.58 | 5:10.62 | 125008 | 148319
8 | 32:57.45 | 6:51.08 | 148320 | 179152


Range status and errors

Selected range

Filename C:\Maynard Ferguson - Maynard Ferguson and his Octet\Maynard Ferguson - Maynard Ferguson and his Octet.wav

Peak level 88.1 %
Range quality 100.0 %
Test CRC 509082F1
Copy CRC 509082F1
Copy OK

No errors occurred


AccurateRip summary

Track 1 not present in database
Track 2 not present in database
Track 3 not present in database
Track 4 not present in database
Track 5 not present in database
Track 6 not present in database
Track 7 not present in database
Track 8 not present in database

None of the tracks are present in the AccurateRip database

End of status report

[CUETools log; Date: 02.11.2017 16:44:16; Version: 2.1.4]
[CTDB TOCID: pzfc2Svcf6ByTx.9CRmVqJOcs20-] found.
Track | CTDB Status
1 | (5/5) Accurately ripped
2 | (5/5) Accurately ripped
3 | (5/5) Accurately ripped
4 | (5/5) Accurately ripped
5 | (5/5) Accurately ripped
6 | (5/5) Accurately ripped
7 | (5/5) Accurately ripped
8 | (5/5) Accurately ripped
[AccurateRip ID: 000aece7-004ad800-7b095408] found.
Track [ CRC | V2 ] Status
01 [b6478aa6|fb7d90e8] (05+06/11) Accurately ripped
02 [a6a44da8|52003796] (05+06/11) Accurately ripped
03 [04ff611f|8b56f087] (05+06/11) Accurately ripped
04 [3899787f|f42ffcd4] (05+06/11) Accurately ripped
05 [f567d37d|1696c8fa] (05+06/11) Accurately ripped
06 [638e22dd|3f188106] (05+06/11) Accurately ripped
07 [29212e08|de519874] (05+06/11) Accurately ripped
08 [499abe90|8685322c] (05+06/11) Accurately ripped

Track Peak [ CRC32 ] [W/O NULL] [ LOG ]
– 88,1 [509082F1] [78F80940] CRC32
01 83,5 [BCEF8DEE] [03DE9E43]
02 76,5 [CC1CA866] [C0FB3E31]
03 77,2 [7D87CDC5] [54A1BF6B]
04 88,1 [D319EDC0] [B3E7AD88]
05 72,9 [D3B6CEC5] [E1B24845]
06 74,8 [D6858BCE] [607429E8]
07 73,5 [9E16FA15] [697ABB80]
08 73,1 [E19091FF] [D611D0A3]

Thanks to tdelyon