Subcategories

Mauro Pagani - Mauro Pagani (1978) [Reissue 1991]

Posted By: gribovar
Mauro Pagani - Mauro Pagani (1978) [Reissue 1991]

Mauro Pagani - Mauro Pagani (1978) [Reissue 1991]
EAC Rip | FLAC (tracks+.cue+log) - 250 MB | MP3 CBR 320 kbps (LAME 3.93) - 99 MB | Covers (14 MB) included
Genre: Progressive Rock | RAR 3% Rec. | Label: CGD (9031 74284-2)

Very popular artist in Italy, both as a solo artist and as session musician, Mauro Pagani had a good solo career after leaving Premiata Forneria Marconi in 1976, tired of the long hard work on the road. In his early days as a musician, Pagani had played with Gli Araldi, JB Club, I Dalton. His love for the world music strongly emerged in his 1978 first album, simply entitled Mauro Pagani, featuring many of the best Italian musicians of that time, among which Area's members Demetrio Stratos, Patrizio Fariselli, Giulio Capiozzo and Ares Tavolazzi, PFM's old cohorts Franco Mussida, Patrick Djivas and Franz Di Cioccio, singer Teresa De Sio. The album is very far from his old band's works, with strong oriental folklore influences, but definitely a very good one.

Tracklist:
01. Europa Minor
02. Argiento
03. Violer d’amores
04. La città aromatica
05. L’albero di canto (parte 1)
06. Choron
07. (Da qualche parte tra la Calabria e Corfù) il blu comincia davvero
08. L’albero di canto (parte 2)

Total time: 36:07

Exact Audio Copy V0.99 prebeta 4 from 23. January 2008

EAC extraction logfile from 19. May 2008, 12:34

Mauro Pagani / Mauro Pagani

Used drive : HL-DT-STDVDRAM GSA-4163B Adapter: 1 ID: 0

Read mode : Secure
Utilize accurate stream : Yes
Defeat audio cache : Yes
Make use of C2 pointers : No

Read offset correction : 667
Overread into Lead-In and Lead-Out : No
Fill up missing offset samples with silence : Yes
Delete leading and trailing silent blocks : No
Null samples used in CRC calculations : Yes
Used interface : Installed external ASPI interface
Gap handling : Appended to previous track

Used output format : Internal WAV Routines
Sample format : 44.100 Hz; 16 Bit; Stereo


TOC of the extracted CD

Track | Start | Length | Start sector | End sector
––––––––––––––––––––––––––––-
1 | 0:00.00 | 6:01.70 | 0 | 27144
2 | 6:01.70 | 4:40.05 | 27145 | 48149
3 | 10:42.00 | 2:39.27 | 48150 | 60101
4 | 13:21.27 | 3:31.33 | 60102 | 75959
5 | 16:52.60 | 4:49.47 | 75960 | 97681
6 | 21:42.32 | 5:21.63 | 97682 | 121819
7 | 27:04.20 | 5:11.65 | 121820 | 145209
8 | 32:16.10 | 3:54.27 | 145210 | 162786


Track 1

Filename D:\Audio\01 - Europa Minor.wav

Pre-gap length 0:00:02.00

Peak level 78.5 %
Track quality 99.9 %
Test CRC 6FB4AA6D
Copy CRC 6FB4AA6D
Cannot be verified as accurate (confidence 1) [BDE48597], AccurateRip returned [1EA2A6D6]
Copy OK

Track 2

Filename D:\Audio\02 - Argiento.wav

Pre-gap length 0:00:01.00

Peak level 52.8 %
Track quality 100.0 %
Test CRC 7FA95BE6
Copy CRC 7FA95BE6
Cannot be verified as accurate (confidence 1) [0D1B40E5], AccurateRip returned [19EF5086]
Copy OK

Track 3

Filename D:\Audio\03 - Violer d'amores.wav

Pre-gap length 0:00:00.70

Peak level 50.9 %
Track quality 100.0 %
Test CRC 96256CC7
Copy CRC 96256CC7
Cannot be verified as accurate (confidence 1) [57D22C83], AccurateRip returned [ACC2AF5B]
Copy OK

Track 4

Filename D:\Audio\04 - La citta' aromatica.wav

Pre-gap length 0:00:01.15

Peak level 82.2 %
Track quality 100.0 %
Test CRC DAA6BA9E
Copy CRC DAA6BA9E
Cannot be verified as accurate (confidence 1) [D7584FF1], AccurateRip returned [C925FAE6]
Copy OK

Track 5

Filename D:\Audio\05 - L'albero di canto (Parte 1).wav

Pre-gap length 0:00:01.03

Peak level 65.5 %
Track quality 100.0 %
Test CRC C235B3A1
Copy CRC C235B3A1
Cannot be verified as accurate (confidence 1) [E25ED415], AccurateRip returned [6E95C1AF]
Copy OK

Track 6

Filename D:\Audio\06 - Choron.wav

Pre-gap length 0:00:01.42

Peak level 73.4 %
Track quality 100.0 %
Test CRC 09E8D465
Copy CRC 09E8D465
Cannot be verified as accurate (confidence 1) [170A543A], AccurateRip returned [1E40088E]
Copy OK

Track 7

Filename D:\Audio\07 - (Da qualche parte tra la Calabria e Corfu') Il blu comincia davvero.wav

Pre-gap length 0:00:01.08

Peak level 75.2 %
Track quality 100.0 %
Test CRC 405DEC22
Copy CRC 405DEC22
Cannot be verified as accurate (confidence 1) [A871529C], AccurateRip returned [84F68924]
Copy OK

Track 8

Filename D:\Audio\08 - L'albero di canto (Parte 2).wav

Pre-gap length 0:00:00.70

Peak level 53.6 %
Track quality 100.0 %
Test CRC 1872EC8D
Copy CRC 1872EC8D
Cannot be verified as accurate (confidence 1) [2233F316], AccurateRip returned [5329BCF5]
Copy OK


No tracks could be verified as accurate
You may have a different pressing from the one(s) in the database

No errors occurred

End of status report

[CUETools log; Date: 20.11.2017 13:59:22; Version: 2.1.4]
[CTDB TOCID: TIrBc8R5VBMdFdAm.5nZcoV_pDs-] found.
Track | CTDB Status
1 | (8/8) Accurately ripped
2 | (8/8) Accurately ripped
3 | (8/8) Accurately ripped
4 | (8/8) Accurately ripped
5 | (8/8) Accurately ripped
6 | (8/8) Accurately ripped
7 | (7/8) Accurately ripped
8 | (7/8) Accurately ripped
[AccurateRip ID: 000b4628-004a8840-59087a08] found.
Track [ CRC | V2 ] Status
01 [bde48597|f95ac809] (2+0/7) Accurately ripped
02 [0d1b40e5|5efd1b10] (2+0/7) Accurately ripped
03 [57d22c83|c7896eb3] (2+0/7) Accurately ripped
04 [d7584ff1|a5b02e12] (2+0/7) Accurately ripped
05 [e25ed415|a07d8748] (2+0/7) Accurately ripped
06 [170a543a|87eeb0ee] (2+0/7) Accurately ripped
07 [a871529c|aabaee98] (2+0/7) Accurately ripped
08 [2233f316|49708ef4] (2+0/7) Accurately ripped
Offsetted by -659:
01 [1ea2a6d6] (2/7) Accurately ripped
02 [19ef5086] (2/7) Accurately ripped
03 [acc2af5b] (2/7) Accurately ripped
04 [c925fae6] (2/7) Accurately ripped
05 [6e95c1af] (2/7) Accurately ripped
06 [1e40088e] (2/7) Accurately ripped
07 [84f68924] (2/7) Accurately ripped
08 [5329bcf5] (2/7) Accurately ripped

Track Peak [ CRC32 ] [W/O NULL] [ LOG ]
– 82,2 [875BBF59] [11CA7805]
01 78,5 [6FB4AA6D] [2A2A429E] CRC32
02 52,8 [7FA95BE6] [F7111B30] CRC32
03 50,9 [96256CC7] [1448E030] CRC32
04 82,2 [DAA6BA9E] [0917C146] CRC32
05 65,5 [C235B3A1] [5054670D] CRC32
06 73,4 [09E8D465] [93E42F00] CRC32
07 75,2 [405DEC22] [D55DBAFC] CRC32
08 53,6 [1872EC8D] [BE5EDD8E] CRC32

Thanks to the original releaser