Subcategories

Maurizio Pollini - Chopin: Nocturnes, Mazurkas, Berceuse, Sonata, Opp. 55-58 (2019)

Posted By: ArlegZ
Maurizio Pollini - Chopin: Nocturnes, Mazurkas, Berceuse, Sonata, Opp. 55-58 (2019)

Maurizio Pollini - Chopin: Nocturnes, Mazurkas, Berceuse, Sonata, Opp. 55-58 (2019)
EAC | FLAC | Image (Cue & Log) ~ 180 Mb | Total time: 53:32 | Scans included
Classical | Label: Deutsche Grammophon | # 483 6475 | Recorded: 2018

Maurizio Pollini, "the pre-eminent Chopinist of his generation" (Fanfare), continues his revelatory and chronological re-exploration of the Polish master's late works. This album contains the pianist's latest thoughts on Opp. 55-58 (1843/4), including the B minor Sonata and Berceuse.

Performer:
Maurizio Pollini piano

Track List:
01. Nocturne No. 15 in F minor, Op. 55 No. 1
02. Nocturne No. 16 in E flat major, Op. 55 No. 2
03. Mazurka No. 33 in B major, Op. 56 No. 1
04. Mazurka No. 34 in C major, Op. 56 No. 2
05. Mazurka No. 35 in C minor, Op. 56 No. 3
06. Berceuse in D flat major, Op. 57
Piano Sonata No. 3 in B minor, Op. 58
07. 1. Allegro maestoso
08. 2. Scherzo (Molto vivace)
09. 3. Largo
10. 4. Finale (Presto non tanto)


Exact Audio Copy V1.3 from 2. September 2016

EAC extraction logfile from 22. May 2019, 21:51

Maurizio Pollini / Chopin - Opp.55-58

Used drive : ASUS SDRW-08U7M-U Adapter: 1 ID: 0

Read mode : Secure
Utilize accurate stream : Yes
Defeat audio cache : Yes
Make use of C2 pointers : No

Read offset correction : 6
Overread into Lead-In and Lead-Out : No
Fill up missing offset samples with silence : Yes
Delete leading and trailing silent blocks : No
Null samples used in CRC calculations : Yes
Used interface : Native Win32 interface for Win NT & 2000

Used output format : User Defined Encoder
Selected bitrate : 128 kBit/s
Quality : High
Add ID3 tag : No
Command line compressor : C:\Program Files (x86)\Exact Audio Copy\Flac\flac.exe
Additional command line options : -V -8 -T "Date=%year%" -T "Genre=%genre%" %source%


TOC of the extracted CD

Track | Start | Length | Start sector | End sector
––––––––––––––––––––––––––––-
1 | 0:00.00 | 4:37.63 | 0 | 20837
2 | 4:37.63 | 4:42.62 | 20838 | 42049
3 | 9:20.50 | 4:30.67 | 42050 | 62366
4 | 13:51.42 | 1:40.22 | 62367 | 69888
5 | 15:31.64 | 5:41.33 | 69889 | 95496
6 | 21:13.22 | 4:29.17 | 95497 | 115688
7 | 25:42.39 | 12:24.65 | 115689 | 171553
8 | 38:07.29 | 2:31.19 | 171554 | 182897
9 | 40:38.48 | 7:39.70 | 182898 | 217392
10 | 48:18.43 | 5:14.25 | 217393 | 240967


Range status and errors

Selected range

Filename C:\temp\Chopin - Nocturnes; Mazurkas; Berceuse; Sonata Opp.55-58 - Pollini - 2019\Chopin - Opp.55-58.wav

Peak level 96.2 %
Extraction speed 4.3 X
Range quality 100.0 %
Test CRC A7C91A2D
Copy CRC A7C91A2D
Copy OK

No errors occurred


AccurateRip summary

Track 1 accurately ripped (confidence 4) [4DD65202] (AR v2)
Track 2 accurately ripped (confidence 4) [3E0AC93B] (AR v2)
Track 3 accurately ripped (confidence 4) [D46FD89D] (AR v2)
Track 4 accurately ripped (confidence 4) [2DF75B95] (AR v2)
Track 5 accurately ripped (confidence 4) [A22AA9C0] (AR v2)
Track 6 accurately ripped (confidence 4) [1C91CB71] (AR v2)
Track 7 accurately ripped (confidence 4) [C91F24B7] (AR v2)
Track 8 accurately ripped (confidence 4) [708AE696] (AR v2)
Track 9 accurately ripped (confidence 4) [2672B3E7] (AR v2)
Track 10 accurately ripped (confidence 4) [DF38792C] (AR v2)

All tracks accurately ripped

End of status report

==== Log checksum 4FB0F6BE9DC9CF48FD47B0D16CEED18C6107E1CB8D56F7E4BD73494F0C026E10 ====

Maurizio Pollini - Chopin: Nocturnes, Mazurkas, Berceuse, Sonata, Opp. 55-58 (2019)

Thanks to the original releaser