Subcategories
Tags
Language
Tags

Marlene Dietrich ‎- The Cosmopolitan Marlene Dietrich (1993)

Posted By: tirexiss
Marlene Dietrich ‎- The Cosmopolitan Marlene Dietrich (1993)

Marlene Dietrich ‎- The Cosmopolitan Marlene Dietrich (1993)
EAC | FLAC (tracks+.cue, log) - 347 MB | MP3 320 Kbps – 139 Mb | Covers Included | 55:17 | 347 MB
Genre: Pop, Chanson | Label: Columbia | Catalog: CK 53209

Cosmopolitan Marlene Dietrich is a terrific 18-track collection that showcases the seductive, sophisticated pop songs Dietrich recorded for Columbia Records. Among the tracks included on the disc are "Lili Marlene," "Mean to Me," "Time on My Hands," "Taking a Chance on Love," "I Never Slept a Wink Last Night," "No Love, No Nothin" and "Miss Otis Regrets."


Marlene Dietrich ‎- The Cosmopolitan Marlene Dietrich (1993)

Track List:

01. Lili Marlene [3:06]
02. Mean To Me [3:09]
03. Annie Doesn't Live Here Anymore [2:57]
04. The Surrey With The Fringe On Top [3:33]
05. Time On My Hands [3:11]
06. Taking A Chance On Love [2:33]
07. Miss Otis Regrets [3:44]
08. I Never Slept A Wink Last Night [2:38]
09. Peter [3:50]
10. Come Rain Or Come Shine [2:58]
11. A Guy What Takes His Time [2:44]
12. Good For Nothing [2:22]
13. Falling In Love Again [2:23]
14. La Vie En Rose [2:49]
15. No Love, No Nothin' [2:52]
16. Something I Dreamed Last Night [3:30]
17. Let's Call It A Day [3:10]
18. Lili Marlene [3:05]

Exact Audio Copy V1.0 beta 3 from 29. August 2011

Отчёт EAC об извлечении, выполненном 4. марта 2012, 10:23

Marlene Dietrich / The Cosmopolitan Marlene Dietrich

Дисковод: HL-DT-STDVDRAM GH22NS50 Adapter: 2 ID: 0

Режим чтения : Достоверность
Использование точного потока : Да
Отключение кэша аудио : Да
Использование указателей C2 : Нет

Коррекция смещения при чтении : 667
Способность читать области Lead-in и Lead-out : Нет
Заполнение пропущенных сэмплов тишиной : Да
Удаление блоков с тишиной в начале и конце : Нет
При вычислениях CRC использовались нулевые сэмплы : Да
Интерфейс : Встроенный Win32-интерфейс для Win NT/2000
Обработка зазоров : Добавлено к предыдущему треку

Выходной формат : Пользовательский кодировщик
Выбранный битрейт : 320 kBit/s
Качество : Высокий
Добавление ID3-тега : Нет
Утилита сжатия : C:\Program Files\Exact Audio Copy\Flac\flac.exe
Дополнительные параметры : -V -8 -T "Genre=%genre%" -T "Artist=%artist%" -T "Title=%title%" -T "Album=%albumtitle%" -T "Date=%year%" -T "Tracknumber=%tracknr%" -T "Comment=%comment%" %source%


TOC извлечённого CD

Трек | Старт | Длительность | Начальный сектор | Конечный сектор
––––––––––––––––––––––––––––––––––-
1 | 0:00.00 | 3:09.32 | 0 | 14206
2 | 3:09.32 | 3:11.28 | 14207 | 28559
3 | 6:20.60 | 2:58.47 | 28560 | 41956
4 | 9:19.32 | 3:35.35 | 41957 | 58116
5 | 12:54.67 | 3:13.08 | 58117 | 72599
6 | 16:08.00 | 2:35.47 | 72600 | 84271
7 | 18:43.47 | 3:47.28 | 84272 | 101324
8 | 22:31.00 | 2:40.10 | 101325 | 113334
9 | 25:11.10 | 3:52.65 | 113335 | 130799
10 | 29:04.00 | 3:00.00 | 130800 | 144299
11 | 32:04.00 | 2:46.17 | 144300 | 156766
12 | 34:50.17 | 2:24.43 | 156767 | 167609
13 | 37:14.60 | 2:25.55 | 167610 | 178539
14 | 39:40.40 | 2:52.42 | 178540 | 191481
15 | 42:33.07 | 2:54.53 | 191482 | 204584
16 | 45:27.60 | 3:32.55 | 204585 | 220539
17 | 49:00.40 | 3:12.02 | 220540 | 234941
18 | 52:12.42 | 3:05.73 | 234942 | 248889


Трек 1

Имя файла F:\mymus\21\01 Lili Marlene.wav

Длина предзазора 0:00:02.00

Пиковый уровень 66.6 %
Скорость извлечения 1.1 X
Качество трека 100.0 %
CRC теста 4F5E89FA
CRC копии 4F5E89FA
Трек не обнаружен в базе AccurateRip
Копирование… OK

Трек 2

Имя файла F:\mymus\21\02 Mean To Me.wav

Длина предзазора 0:00:02.40

Пиковый уровень 46.9 %
Скорость извлечения 1.2 X
Качество трека 100.0 %
CRC теста 2E206A67
CRC копии 2E206A67
Трек не обнаружен в базе AccurateRip
Копирование… OK

Трек 3

Имя файла F:\mymus\21\03 Annie Doesn't Live Here Anymore.wav

Длина предзазора 0:00:02.45

Пиковый уровень 52.7 %
Скорость извлечения 1.1 X
Качество трека 99.9 %
CRC теста 2C662E8A
CRC копии 2C662E8A
Трек не обнаружен в базе AccurateRip
Копирование… OK

Трек 4

Имя файла F:\mymus\21\04 The Surrey With The Fringe On Top.wav

Длина предзазора 0:00:01.32

Пиковый уровень 47.6 %
Скорость извлечения 1.2 X
Качество трека 99.9 %
CRC теста 1672A71C
CRC копии 1672A71C
Трек не обнаружен в базе AccurateRip
Копирование… OK

Трек 5

Имя файла F:\mymus\21\05 Time On My Hands.wav

Длина предзазора 0:00:02.37

Пиковый уровень 51.1 %
Скорость извлечения 1.4 X
Качество трека 100.0 %
CRC теста 0770839E
CRC копии 0770839E
Трек не обнаружен в базе AccurateRip
Копирование… OK

Трек 6

Имя файла F:\mymus\21\06 Taking A Chance On Love.wav

Длина предзазора 0:00:02.40

Пиковый уровень 41.3 %
Скорость извлечения 1.4 X
Качество трека 100.0 %
CRC теста 5EA0DEB6
CRC копии 5EA0DEB6
Трек не обнаружен в базе AccurateRip
Копирование… OK

Трек 7

Имя файла F:\mymus\21\07 Miss Otis Regrets.wav

Длина предзазора 0:00:01.65

Пиковый уровень 46.7 %
Скорость извлечения 1.4 X
Качество трека 99.9 %
CRC теста 865234E6
CRC копии 865234E6
Трек не обнаружен в базе AccurateRip
Копирование… OK

Трек 8

Имя файла F:\mymus\21\08 I Never Slept A Wink Last Night.wav

Длина предзазора 0:00:01.18

Пиковый уровень 47.9 %
Скорость извлечения 1.6 X
Качество трека 100.0 %
CRC теста 175309CB
CRC копии 175309CB
Трек не обнаружен в базе AccurateRip
Копирование… OK

Трек 9

Имя файла F:\mymus\21\09 Peter.wav

Длина предзазора 0:00:02.20

Пиковый уровень 35.3 %
Скорость извлечения 1.8 X
Качество трека 100.0 %
CRC теста 8CE96DF4
CRC копии 8CE96DF4
Трек не обнаружен в базе AccurateRip
Копирование… OK

Трек 10

Имя файла F:\mymus\21\10 Come Rain Or Come Shine.wav

Длина предзазора 0:00:01.68

Пиковый уровень 36.6 %
Скорость извлечения 1.8 X
Качество трека 100.0 %
CRC теста E6AEB8B3
CRC копии E6AEB8B3
Трек не обнаружен в базе AccurateRip
Копирование… OK

Трек 11

Имя файла F:\mymus\21\11 A Guy What Takes His Time.wav

Длина предзазора 0:00:02.18

Пиковый уровень 49.8 %
Скорость извлечения 1.8 X
Качество трека 100.0 %
CRC теста 92013905
CRC копии 92013905
Трек не обнаружен в базе AccurateRip
Копирование… OK

Трек 12

Имя файла F:\mymus\21\12 Good For Nothing.wav

Длина предзазора 0:00:01.60

Пиковый уровень 33.8 %
Скорость извлечения 1.8 X
Качество трека 100.0 %
CRC теста BA6045E0
CRC копии BA6045E0
Трек не обнаружен в базе AccurateRip
Копирование… OK

Трек 13

Имя файла F:\mymus\21\13 Falling In Love Again.wav

Длина предзазора 0:00:02.40

Пиковый уровень 61.2 %
Скорость извлечения 1.5 X
Качество трека 99.9 %
CRC теста F8BDCA46
CRC копии F8BDCA46
Трек не обнаружен в базе AccurateRip
Копирование… OK

Трек 14

Имя файла F:\mymus\21\14 La Vie En Rose.wav

Длина предзазора 0:00:02.23

Пиковый уровень 75.4 %
Скорость извлечения 1.9 X
Качество трека 100.0 %
CRC теста 1B3B2B3C
CRC копии 1B3B2B3C
Трек не обнаружен в базе AccurateRip
Копирование… OK

Трек 15

Имя файла F:\mymus\21\15 No Love, No Nothin'.wav

Длина предзазора 0:00:02.25

Пиковый уровень 66.6 %
Скорость извлечения 2.0 X
Качество трека 100.0 %
CRC теста 3FCABA6B
CRC копии 3FCABA6B
Трек не обнаружен в базе AccurateRip
Копирование… OK

Трек 16

Имя файла F:\mymus\21\16 Something I Dreamed Last Night.wav

Длина предзазора 0:00:02.10

Пиковый уровень 60.2 %
Скорость извлечения 2.1 X
Качество трека 100.0 %
CRC теста 6EED30BC
CRC копии 6EED30BC
Трек не обнаружен в базе AccurateRip
Копирование… OK

Трек 17

Имя файла F:\mymus\21\17 Let's Call It A Day.wav

Длина предзазора 0:00:02.23

Пиковый уровень 71.0 %
Скорость извлечения 2.2 X
Качество трека 100.0 %
CRC теста 2D3AD4D5
CRC копии 2D3AD4D5
Трек не обнаружен в базе AccurateRip
Копирование… OK

Трек 18

Имя файла F:\mymus\21\18 Lili Marlene.wav

Длина предзазора 0:00:02.05

Пиковый уровень 58.0 %
Скорость извлечения 2.2 X
Качество трека 100.0 %
CRC теста E071E242
CRC копии E071E242
Трек не обнаружен в базе AccurateRip
Копирование… OK


Ни одного трека нет в базе AccurateRip

Ошибок не произошло

Конец отчёта

==== Контрольная сумма отчёта D1757F479E317E59B4ED22F652CB40F4A1F6CE3C25EA39A2ABE6D88FC1B24783 ====

Thanks to the Original ripper (unknown)!

Welcome to my blog!

Download: