Subcategories

MOBY - Everything Is Wrong (1995) 2CD Limited Edition

Posted By: Designol
MOBY - Everything Is Wrong (1995) 2CD Limited Edition

MOBY - Everything Is Wrong (1995) 2CD Limited Edition
EAC | FLAC | Tracks (Cue&Log) ~ 438 Mb | Mp3 (CBR320) ~ 218 Mb | Scans included
Label: Mute | # LCDSTUMM130, CDSTUMM130 | Time: 01:30:01
Electronic, Ambient, Techno, Rave, Alternative Rock

Everything Is Wrong is the third studio album by American electronica musician Moby, released on March 14, 1995 by record labels Mute in the United Kingdom and Elektra in the United States. It was released with a limited-edition bonus disc of ambient music titled Underwater. Everything Is Wrong was released to positive reviews from music critics. Spin's Barry Walters praised its diverse range of musical styles compared to most other "one-dimensional" electronic albums and dubbed it "a hugely passionate album held together by its intensity". In The Village Voice, Robert Christgau remarked: "Where in concert he subsumes rockist guitar and classical pretensions in grand, joyous rhythmic release, on album his distant dreams remain tangents." Everything Is Wrong was voted the third best album of 1995 in The Village Voice's year-end Pazz & Jop critics' poll.

For some it was the pinnacle of his career, for others one of a continued string of triumphs (others doubtless cared not at all, thinking somehow that synth and dancebeats equalled musical insincerity, but such is life). Regardless of how one takes it, Everything Is Wrong shows Moby at a definite high point, and if some tracks are much more memorable and involved than others, those successes alone justify the attention and hype he received in his earliest days. Even more noteworthy is that for all that the album is a definite product of time and place, namely 1994-1995, it stands up to further listens for all the further changes in dance since. Having already made his mark with tracks like "Go," "Next Is the E," and "Move," on Everything Is Wrong Moby attempted to balance out the creation of an album in a complete, single-unit sense with his knack for immediately catchy singles. On the latter point he succeeds perfectly, with the frenetic, jungle-inspired anthemic diva showcase "Feeling So Real" (punctuated just so with English-inspired MC breaks) and the giddily sweet pop-minded house of "Everytime You Touch Me" utterly irresistible. Hints of future changes crop up with the speed metal-via-Ministry reworking of Move EP's "All That I Need Is to Be Loved," but the similarly minded blues/thrash of "What Love" forecasts the ham-handed slogs of Animal Rights all too well. Meanwhile, the string-touched "God Moving Over the Face of the Waters" is a self-consciously beautiful, cinematic meditation on spiritual power that in lesser hands might be cheese but comes across here as truly affecting. If there's an ace in the hole, it's the inspired recruiting of former Hugo Largo vocalist Mimi Goese, who had spent the early '90s well out of the public eye. Her turns on "Into the Blue" and especially the haunting, evocative album-closer "When It's Cold I'd Like to Die" bring out in the best in both musicians.

Review by Ned Raggett, Allmusic.com

MOBY - Everything Is Wrong (1995) 2CD Limited Edition



Tracklist:

CD1 - Everything Is Wrong (46:53)

01. Hymn (3:18)
02. Feeling So Real (3:22)
03. All ThatI Need Is To Be Loved (2:43)
04. Lets Go Free (0:38)
05. Everytime You Touch Me (3:42)
06. Bring Back My Happiness (3:13)
07. What Love (2:48)
08. First Cool Hive (5:17)
09. Into The Blue (5:34)
10. Anthem (3:28)
11. Everything Is Wrong (1:15)
12. God Moving Over The Face Of The Water (7:22)
13. When It's Cold I'd Like To Die (4:14)

CD2 (Bonus Disc) - Underwater (43:08)

01. Underwater 1 (5:14)
02. Underwater 2 (5:44)
03. Underwater 3 (7:22)
04. Underwater 4 (8:02)
05. Underwater 5 (16:46)


Exact Audio Copy V0.99 prebeta 4 from 23. January 2008

EAC extraction logfile from 1. August 2009, 15:45

MOBY / Everything Is Wrong

Used drive : ASUS DRW-20B1LT Adapter: 3 ID: 0

Read mode : Secure
Utilize accurate stream : Yes
Defeat audio cache : Yes
Make use of C2 pointers : No

Read offset correction : 6
Overread into Lead-In and Lead-Out : No
Fill up missing offset samples with silence : Yes
Delete leading and trailing silent blocks : No
Null samples used in CRC calculations : Yes
Used interface : Installed external ASPI interface
Gap handling : Appended to previous track

Used output format : User Defined Encoder
Selected bitrate : 768 kBit/s
Quality : High
Add ID3 tag : No
Command line compressor : C:\Program Files\Exact Audio Copy\FLAC\FLAC.EXE
Additional command line options : -8 -V -T "ARTIST=%a" -T "TITLE=%t" -T "ALBUM=%g" -T "DATE=%y" -T "TRACKNUMBER=%n" -T "GENRE=%m" -T "COMMENT=EAC FLAC -8" %s


TOC of the extracted CD

Track | Start | Length | Start sector | End sector
––––––––––––––––––––––––––––-
1 | 0:00.00 | 3:17.67 | 0 | 14841
2 | 3:17.67 | 3:21.45 | 14842 | 29961
3 | 6:39.37 | 2:43.23 | 29962 | 42209
4 | 9:22.60 | 0:38.35 | 42210 | 45094
5 | 10:01.20 | 3:41.57 | 45095 | 61726
6 | 13:43.02 | 3:12.48 | 61727 | 76174
7 | 16:55.50 | 2:48.27 | 76175 | 88801
8 | 19:44.02 | 5:17.15 | 88802 | 112591
9 | 25:01.17 | 5:33.48 | 112592 | 137614
10 | 30:34.65 | 3:27.40 | 137615 | 153179
11 | 34:02.30 | 1:14.47 | 153180 | 158776
12 | 35:17.02 | 7:21.55 | 158777 | 191906
13 | 42:38.57 | 4:14.00 | 191907 | 210956


Track 1

Filename G:\VOODOO SERVER FILES (G)\UTORRENT UPCOMING\MOBY\ALBUMS\MOBY - Everything Wrong (LCDStumm130)\CD1\01 - Hymn.wav

Pre-gap length 0:00:02.00

Peak level 94.4 %
Track quality 99.9 %
Test CRC 9A826B4C
Copy CRC 9A826B4C
Accurately ripped (confidence 28) [F04927F9]
Copy OK

Track 2

Filename G:\VOODOO SERVER FILES (G)\UTORRENT UPCOMING\MOBY\ALBUMS\MOBY - Everything Wrong (LCDStumm130)\CD1\02 - Feeling So Real.wav

Pre-gap length 0:00:01.56

Peak level 97.3 %
Track quality 100.0 %
Test CRC 4E67256D
Copy CRC 4E67256D
Accurately ripped (confidence 28) [B920F7F9]
Copy OK

Track 3

Filename G:\VOODOO SERVER FILES (G)\UTORRENT UPCOMING\MOBY\ALBUMS\MOBY - Everything Wrong (LCDStumm130)\CD1\03 - All ThatI Need Is To Be Loved.wav

Peak level 94.6 %
Track quality 100.0 %
Test CRC 68611EF2
Copy CRC 68611EF2
Accurately ripped (confidence 28) [9CA38141]
Copy OK

Track 4

Filename G:\VOODOO SERVER FILES (G)\UTORRENT UPCOMING\MOBY\ALBUMS\MOBY - Everything Wrong (LCDStumm130)\CD1\04 - Lets Go Free.wav

Peak level 94.6 %
Track quality 100.0 %
Test CRC 661AF418
Copy CRC 661AF418
Accurately ripped (confidence 28) [DD4FA19F]
Copy OK

Track 5

Filename G:\VOODOO SERVER FILES (G)\UTORRENT UPCOMING\MOBY\ALBUMS\MOBY - Everything Wrong (LCDStumm130)\CD1\05 - Everytime You Touch Me.wav

Peak level 100.0 %
Track quality 100.0 %
Test CRC E81BEF26
Copy CRC E81BEF26
Accurately ripped (confidence 28) [65312A16]
Copy OK

Track 6

Filename G:\VOODOO SERVER FILES (G)\UTORRENT UPCOMING\MOBY\ALBUMS\MOBY - Everything Wrong (LCDStumm130)\CD1\06 - Bring Back My Happiness.wav

Peak level 84.3 %
Track quality 100.0 %
Test CRC 05D681EA
Copy CRC 05D681EA
Accurately ripped (confidence 28) [3CDD0027]
Copy OK

Track 7

Filename G:\VOODOO SERVER FILES (G)\UTORRENT UPCOMING\MOBY\ALBUMS\MOBY - Everything Wrong (LCDStumm130)\CD1\07 - What Love.wav

Pre-gap length 0:00:01.24

Peak level 84.3 %
Track quality 99.9 %
Test CRC F71CE387
Copy CRC F71CE387
Accurately ripped (confidence 29) [2AA88D2A]
Copy OK

Track 8

Filename G:\VOODOO SERVER FILES (G)\UTORRENT UPCOMING\MOBY\ALBUMS\MOBY - Everything Wrong (LCDStumm130)\CD1\08 - First Cool Hive.wav

Peak level 94.6 %
Track quality 100.0 %
Test CRC D7041092
Copy CRC D7041092
Accurately ripped (confidence 28) [199CB3EF]
Copy OK

Track 9

Filename G:\VOODOO SERVER FILES (G)\UTORRENT UPCOMING\MOBY\ALBUMS\MOBY - Everything Wrong (LCDStumm130)\CD1\09 - Into The Blue.wav

Pre-gap length 0:00:01.49

Peak level 95.0 %
Track quality 100.0 %
Test CRC B9BFC2FD
Copy CRC B9BFC2FD
Accurately ripped (confidence 28) [B93E76D5]
Copy OK

Track 10

Filename G:\VOODOO SERVER FILES (G)\UTORRENT UPCOMING\MOBY\ALBUMS\MOBY - Everything Wrong (LCDStumm130)\CD1\10 - Anthem.wav

Pre-gap length 0:00:01.46

Peak level 90.1 %
Track quality 99.9 %
Test CRC 6218B558
Copy CRC 6218B558
Accurately ripped (confidence 28) [8FA44D0F]
Copy OK

Track 11

Filename G:\VOODOO SERVER FILES (G)\UTORRENT UPCOMING\MOBY\ALBUMS\MOBY - Everything Wrong (LCDStumm130)\CD1\11 - Everything Is Wrong.wav

Peak level 41.6 %
Track quality 100.0 %
Test CRC 566FB891
Copy CRC 566FB891
Accurately ripped (confidence 28) [8E517F05]
Copy OK

Track 12

Filename G:\VOODOO SERVER FILES (G)\UTORRENT UPCOMING\MOBY\ALBUMS\MOBY - Everything Wrong (LCDStumm130)\CD1\12 - God Moving Over The Face Of The Water.wav

Pre-gap length 0:00:01.08

Peak level 96.3 %
Track quality 100.0 %
Test CRC E8520AD8
Copy CRC E8520AD8
Accurately ripped (confidence 28) [231C0F04]
Copy OK

Track 13

Filename G:\VOODOO SERVER FILES (G)\UTORRENT UPCOMING\MOBY\ALBUMS\MOBY - Everything Wrong (LCDStumm130)\CD1\13 - When It's Cold I'd Like To Die.wav

Pre-gap length 0:00:01.73

Peak level 92.4 %
Track quality 100.0 %
Test CRC AFCC2283
Copy CRC AFCC2283
Accurately ripped (confidence 29) [A5206284]
Copy OK


All tracks accurately ripped

No errors occurred

End of status report

[CUETools log; Date: 06.11.2018 21:36:35; Version: 2.1.4]
[CTDB TOCID: cgeBpx28sTkOJ9iMspxLCjpmTG4-] found.
Track | CTDB Status
1 | (182/311) Accurately ripped, or (124/311) differs in 3 samples @00:57:07
2 | (308/311) Accurately ripped
3 | (182/311) Accurately ripped, or (124/311) differs in 3 samples @00:39:18
4 | (310/311) Accurately ripped
5 | (309/311) Accurately ripped
6 | (309/311) Accurately ripped
7 | (309/311) Accurately ripped
8 | (308/311) Accurately ripped
9 | (308/311) Accurately ripped
10 | (310/311) Accurately ripped
11 | (310/311) Accurately ripped
12 | (306/311) Accurately ripped
13 | (310/311) Accurately ripped
[AccurateRip ID: 00143341-00ced894-990afc0d] found.
Track [ CRC | V2 ] Status
01 [f04927f9|74549944] (059+065/286) Accurately ripped
02 [b920f7f9|7efe83b1] (059+065/286) Accurately ripped
03 [9ca38141|e7af2458] (060+066/289) Accurately ripped
04 [dd4fa19f|cb8457b7] (060+066/289) Accurately ripped
05 [65312a16|1c98ccaf] (060+065/288) Accurately ripped
06 [3cdd0027|c3770bbe] (060+066/288) Accurately ripped
07 [2aa88d2a|021792d3] (062+065/288) Accurately ripped
08 [199cb3ef|98b8f035] (060+065/286) Accurately ripped
09 [b93e76d5|870ed483] (061+066/286) Accurately ripped
10 [8fa44d0f|1f0ae376] (060+065/286) Accurately ripped
11 [8e517f05|d512999d] (061+066/289) Accurately ripped
12 [231c0f04|7733b4b1] (059+066/284) Accurately ripped
13 [a5206284|1d38535f] (061+064/285) Accurately ripped
Offsetted by -664:
01 [f22193d9] (010/286) Accurately ripped
02 [965d3061] (010/286) Accurately ripped
03 [2b4740c9] (010/289) Accurately ripped
04 [9becf9d7] (010/289) Accurately ripped
05 [2055e596] (010/288) Accurately ripped
06 [5884c27f] (010/288) Accurately ripped
07 [db9a0eea] (010/288) Accurately ripped
08 [aa6b4627] (010/286) Accurately ripped
09 [975fccbd] (010/286) Accurately ripped
10 [4e315407] (010/286) Accurately ripped
11 [092641b5] (010/289) Accurately ripped
12 [238e27cc] (010/284) Accurately ripped
13 [07dcbdac] (010/285) Accurately ripped
Offsetted by -557:
01 [e206cc7d] (006/286) Accurately ripped
02 [5acf3e6c] (006/286) Accurately ripped
03 [2e8274d0] (006/289) Accurately ripped
04 [c1d5ef18] (006/289) Accurately ripped
05 [95749aa6] (006/288) Accurately ripped
06 [887eee5c] (006/288) Accurately ripped
07 [d94e20f2] (006/288) Accurately ripped
08 [7b2e3a28] (006/286) Accurately ripped
09 [648b0198] (006/286) Accurately ripped
10 [fa4818b0] (006/286) Accurately ripped
11 [ae07d3af] (006/289) Accurately ripped
12 [4569436b] (006/284) Accurately ripped
13 [06fcd89f] (006/285) Accurately ripped
Offsetted by -248:
01 [09a65359] (004/286) Accurately ripped
02 [18189e01] (004/286) Accurately ripped
03 [edac3ae9] (004/289) Accurately ripped
04 [74b27eb7] (004/289) Accurately ripped
05 [4e8f1396] (004/288) Accurately ripped
06 [7eb5dfdf] (004/288) Accurately ripped
07 [888135ea] (004/288) Accurately ripped
08 [5c08b307] (004/286) Accurately ripped
09 [8794f05d] (004/286) Accurately ripped
10 [3c9833e7] (004/286) Accurately ripped
11 [128e7475] (004/289) Accurately ripped
12 [1a05e6ec] (004/284) Accurately ripped
13 [4ea1564c] (004/285) Accurately ripped
Offsetted by -34:
01 [e970c4a1] (003/286) Accurately ripped
02 [a0fcba17] (003/286) Accurately ripped
03 [f422a2f7] (003/289) Accurately ripped
04 [c0846939] (003/289) Accurately ripped
05 [38cc7db6] (003/288) Accurately ripped
06 [deaa3799] (002/288) Accurately ripped
07 [83e959fa] (003/288) Accurately ripped
08 [fd8e9b09] (003/286) Accurately ripped
09 [21eb5a13] (003/286) Accurately ripped
10 [94c5bd39] (003/286) Accurately ripped
11 [5c519869] (003/289) Accurately ripped
12 [5dbc1e2a] (003/284) Accurately ripped
13 [4ce18c32] (003/285) Accurately ripped
Offsetted by 893:
01 [604f5935] (003/286) Accurately ripped
02 [d8d8d8d6] (004/286) Accurately ripped
03 [319ff542] (004/289) Accurately ripped
04 [d91a1816] (004/289) Accurately ripped
05 [641be886] (003/288) Accurately ripped
06 [c14f0c22] (004/288) Accurately ripped
07 [918298e2] (004/288) Accurately ripped
08 [a01e05a6] (003/286) Accurately ripped
09 [8b092662] (003/286) Accurately ripped
10 [5bb60ede] (003/286) Accurately ripped
11 [89e57abb] (003/289) Accurately ripped
12 [db9208ad] (002/284) Accurately ripped
13 [23cf0539] (002/285) Accurately ripped
Offsetted by -885:
01 [45a30e1d] (000/286) No match (V2 was not tested)
02 [f9719e24] (000/286) No match (V2 was not tested)
03 [e4019be8] (000/289) No match (V2 was not tested)
04 [60c40b40] (000/289) No match (V2 was not tested)
05 [7fc78526] (000/288) No match (V2 was not tested)
06 [743aaae4] (000/288) No match (V2 was not tested)
07 [9fbf4232] (000/288) No match (V2 was not tested)
08 [f40fa450] (000/286) No match (V2 was not tested)
09 [bfc391d0] (000/286) No match (V2 was not tested)
10 [ef8aad18] (000/286) No match (V2 was not tested)
11 [4426e6bf] (000/289) No match (V2 was not tested)
12 [209e8a43] (000/284) No match (V2 was not tested)
13 [4a444c97] (000/285) No match (V2 was not tested)
Offsetted by -701:
01 [014527bd] (000/286) No match (V2 was not tested)
02 [9a35bfdc] (000/286) No match (V2 was not tested)
03 [b0246d00] (000/289) No match (V2 was not tested)
04 [cf6a2d68] (000/289) No match (V2 was not tested)
05 [ca60cfa6] (000/288) No match (V2 was not tested)
06 [53e4156c] (000/288) No match (V2 was not tested)
07 [62609372] (000/288) No match (V2 was not tested)
08 [aa019478] (000/286) No match (V2 was not tested)
09 [2eeec408] (000/286) No match (V2 was not tested)
10 [e2d5b780] (000/286) No match (V2 was not tested)
11 [349ed5cf] (000/289) No match (V2 was not tested)
12 [79f10b1b] (000/284) No match (V2 was not tested)
13 [822ef28f] (000/285) No match (V2 was not tested)
Offsetted by -236:
01 [b1b67669] (000/286) No match (V2 was not tested)
02 [a825688d] (012/286) Accurately ripped
03 [383410e5] (000/289) No match (V2 was not tested)
04 [3390cedb] (012/289) Accurately ripped
05 [f4d0b9d6] (012/288) Accurately ripped
06 [186d71f3] (012/288) Accurately ripped
07 [d26a570a] (012/288) Accurately ripped
08 [ed77162b] (012/286) Accurately ripped
09 [cc0ca029] (012/286) Accurately ripped
10 [fe8c66ab] (012/286) Accurately ripped
11 [9cac899d] (012/289) Accurately ripped
12 [aafa9648] (012/284) Accurately ripped
13 [045d2978] (012/285) Accurately ripped
Offsetted by -230:
01 [85be87f1] (000/286) No match (V2 was not tested)
02 [702bcdd3] (002/286) Accurately ripped
03 [dd77fbe3] (000/289) No match (V2 was not tested)
04 [92fff6ed] (002/289) Accurately ripped
05 [47f18cf6] (002/288) Accurately ripped
06 [65493afd] (002/288) Accurately ripped
07 [775ee79a] (002/288) Accurately ripped
08 [b62e47bd] (002/286) Accurately ripped
09 [6e48780f] (002/286) Accurately ripped
10 [df86800d] (002/286) Accurately ripped
11 [e1bb9431] (002/289) Accurately ripped
12 [7374edf6] (002/284) Accurately ripped
13 [5f3b130e] (002/285) Accurately ripped
Offsetted by 440:
01 [57ee2d99] (000/286) No match (V2 was not tested)
02 [5af5fab1] (032/286) Accurately ripped
03 [f4182759] (000/289) No match (V2 was not tested)
04 [33d1c6c7] (032/289) Accurately ripped
05 [dfeda496] (032/288) Accurately ripped
06 [967d41af] (032/288) Accurately ripped
07 [6b61f66a] (031/288) Accurately ripped
08 [ee16e717] (031/286) Accurately ripped
09 [3262fa0d] (031/286) Accurately ripped
10 [01f39277] (032/286) Accurately ripped
11 [abf5dc15] (033/289) Accurately ripped
12 [3b7d2cdc] (032/284) Accurately ripped
13 [575ca17c] (032/285) Accurately ripped

Track Peak [ CRC32 ] [W/O NULL] [ LOG ]
– 100,0 [2F0494F7] [9351F4D9]
01 94,4 [9A826B4C] [E2BFDDF5] CRC32
02 97,3 [4E67256D] [D1F7BC98] CRC32
03 94,6 [68611EF2] [35946327] CRC32
04 94,6 [661AF418] [5388F970] CRC32
05 100,0 [E81BEF26] [FE3E296C] CRC32
06 84,3 [05D681EA] [5EBEFFB4] CRC32
07 84,3 [F71CE387] [1F594207] CRC32
08 94,6 [D7041092] [F298B56D] CRC32
09 95,0 [B9BFC2FD] [4DD6B745] CRC32
10 90,1 [6218B558] [5B39C989] CRC32
11 41,6 [566FB891] [BD10FA7D] CRC32
12 96,3 [E8520AD8] [FD689138] CRC32
13 92,4 [AFCC2283] [95443171] CRC32

foobar2000 1.2 / Dynamic Range Meter 1.1.1
log date: 2013-05-13 14:23:33

––––––––––––––––––––––––––––––––––––––––
Analyzed: MOBY / Everything Is Wrong
––––––––––––––––––––––––––––––––––––––––

DR Peak RMS Duration Track
––––––––––––––––––––––––––––––––––––––––
DR11 -0.50 dB -14.61 dB 3:18 01-Hymn
DR7 -0.23 dB -9.06 dB 3:22 02-Feeling So Real
DR8 -0.48 dB -9.12 dB 2:43 03-All ThatI Need Is To Be Loved
DR11 -0.48 dB -12.92 dB 0:38 04-Lets Go Free
DR9 0.00 dB -10.77 dB 3:42 05-Everytime You Touch Me
DR6 -1.48 dB -9.50 dB 3:13 06-Bring Back My Happiness
DR6 -1.48 dB -9.89 dB 2:48 07-What Love
DR11 -0.48 dB -13.51 dB 5:17 08-First Cool Hive
DR11 -0.44 dB -14.84 dB 5:34 09-Into The Blue
DR8 -0.90 dB -10.43 dB 3:28 10-Anthem
DR12 -7.61 dB -22.01 dB 1:15 11-Everything Is Wrong
DR11 -0.32 dB -14.02 dB 7:22 12-God Moving Over The Face Of The Water
DR13 -0.68 dB -18.06 dB 4:14 13-When It's Cold I'd Like To Die
––––––––––––––––––––––––––––––––––––––––

Number of tracks: 13
Official DR value: DR10

Samplerate: 44100 Hz
Channels: 2
Bits per sample: 16
Bitrate: 747 kbps
Codec: FLAC
================================================================================


Exact Audio Copy V0.99 prebeta 4 from 23. January 2008

EAC extraction logfile from 1. August 2009, 15:07

MOBY / Underwaters 1-5

Used drive : ASUS DRW-20B1LT Adapter: 3 ID: 0

Read mode : Secure
Utilize accurate stream : Yes
Defeat audio cache : Yes
Make use of C2 pointers : No

Read offset correction : 6
Overread into Lead-In and Lead-Out : No
Fill up missing offset samples with silence : Yes
Delete leading and trailing silent blocks : No
Null samples used in CRC calculations : Yes
Used interface : Installed external ASPI interface
Gap handling : Appended to previous track

Used output format : User Defined Encoder
Selected bitrate : 768 kBit/s
Quality : High
Add ID3 tag : No
Command line compressor : C:\Program Files\Exact Audio Copy\FLAC\FLAC.EXE
Additional command line options : -8 -V -T "ARTIST=%a" -T "TITLE=%t" -T "ALBUM=%g" -T "DATE=%y" -T "TRACKNUMBER=%n" -T "GENRE=%m" -T "COMMENT=EAC FLAC -8" %s


TOC of the extracted CD

Track | Start | Length | Start sector | End sector
––––––––––––––––––––––––––––-
1 | 0:00.00 | 5:14.07 | 0 | 23556
2 | 5:14.07 | 5:43.60 | 23557 | 49341
3 | 10:57.67 | 7:22.28 | 49342 | 82519
4 | 18:20.20 | 8:01.67 | 82520 | 118661
5 | 26:22.12 | 16:45.45 | 118662 | 194081


Track 1

Filename G:\VOODOO SERVER FILES (G)\UTORRENT UPCOMING\MOBY\ALBUMS\MOBY - Everything Wrong (LCDStumm130)\01 - Underwater 1.wav

Pre-gap length 0:00:02.00

Peak level 93.4 %
Track quality 100.0 %
Test CRC BAE49020
Copy CRC BAE49020
Accurately ripped (confidence 8) [B02BD64D]
Copy OK

Track 2

Filename G:\VOODOO SERVER FILES (G)\UTORRENT UPCOMING\MOBY\ALBUMS\MOBY - Everything Wrong (LCDStumm130)\02 - Underwater 2.wav

Peak level 54.9 %
Track quality 100.0 %
Test CRC AB7E2556
Copy CRC AB7E2556
Accurately ripped (confidence 8) [73FA2925]
Copy OK

Track 3

Filename G:\VOODOO SERVER FILES (G)\UTORRENT UPCOMING\MOBY\ALBUMS\MOBY - Everything Wrong (LCDStumm130)\03 - Underwater 3.wav

Peak level 64.7 %
Track quality 100.0 %
Test CRC FD22E686
Copy CRC FD22E686
Accurately ripped (confidence 8) [6CB499D0]
Copy OK

Track 4

Filename G:\VOODOO SERVER FILES (G)\UTORRENT UPCOMING\MOBY\ALBUMS\MOBY - Everything Wrong (LCDStumm130)\04 - Underwater 4.wav

Peak level 48.4 %
Track quality 100.0 %
Test CRC BD9DBFE7
Copy CRC BD9DBFE7
Accurately ripped (confidence 8) [4C744656]
Copy OK

Track 5

Filename G:\VOODOO SERVER FILES (G)\UTORRENT UPCOMING\MOBY\ALBUMS\MOBY - Everything Wrong (LCDStumm130)\05 - Underwater 5.wav

Peak level 36.9 %
Track quality 100.0 %
Test CRC 41AC99E9
Copy CRC 41AC99E9
Accurately ripped (confidence 7) [4E4BB384]
Copy OK


All tracks accurately ripped

No errors occurred

End of status report

[CUETools log; Date: 06.11.2018 21:36:58; Version: 2.1.4]
[CTDB TOCID: j_wU3X64UoAX9bJoFkiO.5dzV18-] found.
Track | CTDB Status
1 | (50/50) Accurately ripped
2 | (50/50) Accurately ripped
3 | (50/50) Accurately ripped
4 | (50/50) Accurately ripped
5 | (47/50) Accurately ripped
[AccurateRip ID: 000724c3-0022d60f-360a1b05] found.
Track [ CRC | V2 ] Status
01 [b02bd64d|3b6dda12] (15+28/47) Accurately ripped
02 [73fa2925|9ae57bac] (15+29/48) Accurately ripped
03 [6cb499d0|c38655d6] (15+29/47) Accurately ripped
04 [4c744656|92733aa0] (15+29/48) Accurately ripped
05 [4e4bb384|c7521135] (14+27/45) Accurately ripped
Offsetted by 321:
01 [9d1c8530] (00/47) No match (V2 was not tested)
02 [cc637500] (00/48) No match (V2 was not tested)
03 [2fa2bd53] (00/47) No match (V2 was not tested)
04 [181c2b14] (00/48) No match (V2 was not tested)
05 [61f4981e] (00/45) No match (V2 was not tested)

Track Peak [ CRC32 ] [W/O NULL] [ LOG ]
– 93,4 [A33246D9] [454498B2]
01 93,4 [BAE49020] [8EF35EC0] CRC32
02 54,9 [AB7E2556] [B17FE029] CRC32
03 64,7 [FD22E686] [AA82BD7E] CRC32
04 48,4 [BD9DBFE7] [528C5C39] CRC32
05 36,9 [41AC99E9] [D9FE91D7] CRC32

foobar2000 1.2 / Dynamic Range Meter 1.1.1
log date: 2013-05-13 14:23:55

––––––––––––––––––––––––––––––––––––––––
Analyzed: MOBY / Underwaters 1-5
––––––––––––––––––––––––––––––––––––––––

DR Peak RMS Duration Track
––––––––––––––––––––––––––––––––––––––––
DR11 -0.59 dB -17.89 dB 5:14 01-Underwater 1
DR10 -5.19 dB -19.42 dB 5:44 02-Underwater 2
DR11 -3.78 dB -20.89 dB 7:22 03-Underwater 3
DR11 -6.30 dB -22.19 dB 8:02 04-Underwater 4
DR15 -8.64 dB -31.28 dB 16:46 05-Underwater 5
––––––––––––––––––––––––––––––––––––––––

Number of tracks: 5
Official DR value: DR12

Samplerate: 44100 Hz
Channels: 2
Bits per sample: 16
Bitrate: 360 kbps
Codec: FLAC
================================================================================

MOBY - Everything Is Wrong (1995) 2CD Limited Edition

MOBY - Everything Is Wrong (1995) 2CD Limited Edition