Subcategories

Mary-Kate & Ashley Olsen - Give Us A Mystery (1994) {Dualstar} **[RE-UP]**

Posted By: TestTickles
Mary-Kate & Ashley Olsen - Give Us A Mystery (1994) {Dualstar} **[RE-UP]**

Mary-Kate & Ashley Olsen - Give Us A Mystery (1994} {Dualstar}
EAC Rip | FLAC with CUE and log | scans | 237 mb
MP3 CBR 320kbps | RAR | 79 mb
Genre: children's, pop

Give Us A Mystery is the 1994 CD by child stars (and twin sisters) Mary-Kate & Ashley Olsen. They were the stars of the ABC television show Full House and on the side they made home videos and CD's. This is what they did before they got into fashion and looked like they were both on meth. This was released by Dualstar.

Mary-Kate & Ashley Olsen - Give Us A Mystery (1994) {Dualstar} **[RE-UP]**

1. Give Us A Mystery (2:33)
2. B-U-T-T Out (2:54)
3. Bravery (3:27)
4. That Funky Musicology (3:11)
5. The Ghost Song (No Such Thing) (3:36)
6. Nothing To Do (2:45)
7. I'd Like To Be A Cowboy (2:35)
8. It's Not Logical (2:36)
9. Lotta Rocks (3:34)
10. At The End Of The Day (2:28)
11. How The West Was Fun (3:28)


Exact Audio Copy V1.1 from 23. June 2015

EAC extraction logfile from 1. April 2016, 18:53

Mary-Kate & Ashley Olsen / Give Us A Mystery

Used drive : TEAC DVD-ROM DV-28SW Adapter: 1 ID: 0

Read mode : Secure
Utilize accurate stream : Yes
Defeat audio cache : Yes
Make use of C2 pointers : No

Read offset correction : 6
Overread into Lead-In and Lead-Out : No
Fill up missing offset samples with silence : Yes
Delete leading and trailing silent blocks : No
Null samples used in CRC calculations : Yes
Used interface : Native Win32 interface for Win NT & 2000
Gap handling : Left out

Used output format : Internal WAV Routines
Sample format : 44.100 Hz; 16 Bit; Stereo


TOC of the extracted CD

Track | Start | Length | Start sector | End sector
––––––––––––––––––––––––––––-
1 | 0:00.00 | 2:33.57 | 0 | 11531
2 | 2:33.57 | 2:54.00 | 11532 | 24581
3 | 5:27.57 | 3:27.18 | 24582 | 40124
4 | 8:55.00 | 3:11.57 | 40125 | 54506
5 | 12:06.57 | 3:36.33 | 54507 | 70739
6 | 15:43.15 | 2:45.25 | 70740 | 83139
7 | 18:28.40 | 2:35.17 | 83140 | 94781
8 | 21:03.57 | 2:36.33 | 94782 | 106514
9 | 23:40.15 | 3:34.30 | 106515 | 122594
10 | 27:14.45 | 2:28.00 | 122595 | 133694
11 | 29:42.45 | 3:28.67 | 133695 | 149361


Track 1

Filename C:\My Documents\My FLAC\Mary-Kate & Ashley Olsen - Give Us A Mystery (1994) [FLAC] {Dualstar}\01 - Give Us A Mystery.wav

Pre-gap length 0:00:02.00

Peak level 100.0 %
Extraction speed 2.6 X
Track quality 100.0 %
Test CRC B3C1E525
Copy CRC B3C1E525
Track not fully ripped for AccurateRip lookup
Copy OK

Track 2

Filename C:\My Documents\My FLAC\Mary-Kate & Ashley Olsen - Give Us A Mystery (1994) [FLAC] {Dualstar}\02 - B-U-T-T Out.wav

Pre-gap length 0:00:00.60

Peak level 100.0 %
Extraction speed 2.9 X
Track quality 100.0 %
Test CRC 96A2DC48
Copy CRC 96A2DC48
Accurately ripped (confidence 2) [FB8D53D5] (AR v2)
Copy OK

Track 3

Filename C:\My Documents\My FLAC\Mary-Kate & Ashley Olsen - Give Us A Mystery (1994) [FLAC] {Dualstar}\03 - Bravery.wav

Peak level 100.0 %
Extraction speed 3.2 X
Track quality 100.0 %
Test CRC EE19C996
Copy CRC EE19C996
Track not fully ripped for AccurateRip lookup
Copy OK

Track 4

Filename C:\My Documents\My FLAC\Mary-Kate & Ashley Olsen - Give Us A Mystery (1994) [FLAC] {Dualstar}\04 - That Funky Musicology.wav

Pre-gap length 0:00:01.33

Peak level 100.0 %
Extraction speed 3.3 X
Track quality 100.0 %
Test CRC AF247AC8
Copy CRC AF247AC8
Track not fully ripped for AccurateRip lookup
Copy OK

Track 5

Filename C:\My Documents\My FLAC\Mary-Kate & Ashley Olsen - Give Us A Mystery (1994) [FLAC] {Dualstar}\05 - Ghost Song (No Such Thing).wav

Pre-gap length 0:00:01.70

Peak level 100.0 %
Extraction speed 3.0 X
Track quality 99.9 %
Test CRC B97D1F35
Copy CRC B97D1F35
Accurately ripped (confidence 2) [06F01B9E] (AR v2)
Copy OK

Track 6

Filename C:\My Documents\My FLAC\Mary-Kate & Ashley Olsen - Give Us A Mystery (1994) [FLAC] {Dualstar}\06 - Nothing To Do.wav

Peak level 100.0 %
Extraction speed 3.6 X
Track quality 100.0 %
Test CRC F1778462
Copy CRC F1778462
Track not fully ripped for AccurateRip lookup
Copy OK

Track 7

Filename C:\My Documents\My FLAC\Mary-Kate & Ashley Olsen - Give Us A Mystery (1994) [FLAC] {Dualstar}\07 - I'd Like To Be A Cowboy.wav

Pre-gap length 0:00:01.40

Peak level 100.0 %
Extraction speed 3.7 X
Track quality 100.0 %
Test CRC DE7C000B
Copy CRC DE7C000B
Track not fully ripped for AccurateRip lookup
Copy OK

Track 8

Filename C:\My Documents\My FLAC\Mary-Kate & Ashley Olsen - Give Us A Mystery (1994) [FLAC] {Dualstar}\08 - It's Not Logical.wav

Pre-gap length 0:00:02.07

Peak level 100.0 %
Extraction speed 3.8 X
Track quality 100.0 %
Test CRC 865EBB23
Copy CRC 865EBB23
Accurately ripped (confidence 2) [A5174DF7] (AR v2)
Copy OK

Track 9

Filename C:\My Documents\My FLAC\Mary-Kate & Ashley Olsen - Give Us A Mystery (1994) [FLAC] {Dualstar}\09 - Lotta Rocks.wav

Peak level 100.0 %
Extraction speed 4.3 X
Track quality 100.0 %
Test CRC 55CE56BC
Copy CRC 55CE56BC
Track not fully ripped for AccurateRip lookup
Copy OK

Track 10

Filename C:\My Documents\My FLAC\Mary-Kate & Ashley Olsen - Give Us A Mystery (1994) [FLAC] {Dualstar}\10 - At The End Of The Day.wav

Pre-gap length 0:00:00.35

Peak level 100.0 %
Extraction speed 4.1 X
Track quality 100.0 %
Test CRC 594D87A8
Copy CRC 594D87A8
Track not fully ripped for AccurateRip lookup
Copy OK

Track 11

Filename C:\My Documents\My FLAC\Mary-Kate & Ashley Olsen - Give Us A Mystery (1994) [FLAC] {Dualstar}\11 - How The West Was Fun.wav

Pre-gap length 0:00:00.05

Peak level 100.0 %
Extraction speed 4.5 X
Track quality 100.0 %
Test CRC 9027D5B2
Copy CRC 9027D5B2
Accurately ripped (confidence 2) [1B54BB47] (AR v2)
Copy OK


4 track(s) accurately ripped
7 track(s) not fully ripped for AccurateRip lookup

Some tracks could not be verified as accurate

No errors occurred

End of status report

==== Log checksum EB1F0D8837EB52F894BA00DA62E063A3783AF584216FB3AD0D38444DBCBF2BF3 ====


Mary-Kate & Ashley Olsen - Give Us A Mystery (1994) {Dualstar} **[RE-UP]**