Subcategories

Modern Talking - In The Garden Of Venus (1987) {1988 Hansa}

Posted By: TestTickles
Modern Talking - In The Garden Of Venus (1987) {1988 Hansa}

Modern Talking - In The Garden Of Venus (1987) {1988 Hansa}
EAC Rip | FLAC with CUE and LOG | scans | 238 mb
MP3 CBR 320 kbps | RAR | 94 mb
Genre: synth-pop, Europop

In The Garden Of Venus is the 1987 album by German duo Modern Talking. This is first release on compact disc in 1988 by Hansa Records.

Modern Talking - In The Garden Of Venus (1987) {1988 Hansa}

01. In 100 Years
02. Don't Let It Get You Down
03. Who Will Save The World
04. A Telegram To Your Heart
05. It's Christmas
06. Don't Lose My Number
07. Slow Motion
08. Locomotion Tango
09. Good Girls Go To Heaven - Bad Girls Go To Everywhere
10. In 100 Years (Reprise)

Exact Audio Copy V1.0 beta 4 from 7. December 2014

Отчёт EAC об извлечении, выполненном 9. май 2016, 8:20

Modern Talking / In The Garden Of Venus

Дисковод: Optiarc DVD RW AD-7200S Adapter: 1 ID: 0
Режим чтения : Достоверность
Использование точного потока : Да
Отключение кэша аудио : Да
Использование указателей C2 : Нет

Коррекция смещения при чтении : 48
Способность читать области Lead-in и Lead-out : Нет
Заполнение пропущенных сэмплов тишиной : Да
Удаление блоков с тишиной в начале и конце : Нет
При вычислениях CRC использовались нулевые сэмплы : Да
Интерфейс : Встроенный Win32-интерфейс для Win NT/2000

Выходной формат : Пользовательский кодировщик
Выбранный битрейт : 768 kBit/s
Качество : Высокий
Добавление ID3-тега : Нет
Утилита сжатия : C:\Program Files (x86)\Exact Audio Copy\FLAC\FLAC.EXE
Дополнительные параметры : -6 -V -T "ARTIST=%artist%" -T "TITLE=%title%" -T "ALBUM=%albumtitle%" -T "DATE=%year%" -T "TRACKNUMBER=%tracknr%" -T "GENRE=%genre%" -T "COMMENT=%comment%" -T "BAND=%albuminterpret%" -T "ALBUMARTIST=%albuminterpret%" -T "COMPOSER=%composer%" %haslyrics%–tag-from-file=LYRICS="%lyricsfile%"%haslyrics% -T "DISCNUMBER=%cdnumber%" -T "TOTALDISCS=%totalcds%" -T "TOTALTRACKS=%numtracks%" %hascover%–picture="%coverfile%"%hascover% %source% -o %dest%

TOC извлечённого CD

Трек | Старт | Длительность | Начальный сектор | Конечный сектор
––––––––––––––––––––––––––––––––––-
1 | 0:00.00 | 4:00.47 | 0 | 18046
2 | 4:00.47 | 3:42.73 | 18047 | 34769
3 | 7:43.45 | 3:46.02 | 34770 | 51721
4 | 11:29.47 | 2:53.00 | 51722 | 64696
5 | 14:22.47 | 3:54.03 | 64697 | 82249
6 | 18:16.50 | 3:11.72 | 82250 | 96646
7 | 21:28.47 | 3:42.00 | 96647 | 113296
8 | 25:10.47 | 3:51.03 | 113297 | 130624
9 | 29:01.50 | 3:37.72 | 130625 | 146971
10 | 32:39.47 | 1:27.53 | 146972 | 153549

Характеристики диапазона извлечения и сообщения об ошибках

Выбранный диапазон

Имя файла C:\cuntfist\FLAC\Modern Talking - In The Garden Of Venus (1987) [FLAC] {1988 Hansa}\Modern Talking - In The Garden Of Venus.wav

Пиковый уровень 91.6 %
Скорость извлечения 1.2 X
Качество диапазона 100.0 %
CRC теста DDA7B442
CRC копии DDA7B442
Копирование… OK

Ошибок не произошло

AccurateRip: сводка

Трек 1 : извлечено точно (доверие 10) [750E4A2E] (AR v2)
Трек 2 : извлечено точно (доверие 9) [EACA0903] (AR v2)
Трек 3 : извлечено точно (доверие 9) [FA58A982] (AR v2)
Трек 4 : извлечено точно (доверие 9) [964EAB91] (AR v2)
Трек 5 : извлечено точно (доверие 10) [7D413A12] (AR v2)
Трек 6 : извлечено точно (доверие 9) [A57AF8AC] (AR v2)
Трек 7 : извлечено точно (доверие 9) [0D9CB6A4] (AR v2)
Трек 8 : извлечено точно (доверие 9) [CAE981E8] (AR v2)
Трек 9 : извлечено точно (доверие 9) [05F0D605] (AR v2)
Трек 10 : извлечено точно (доверие 9) [4A7F858F] (AR v2)

Все треки извлечены точно

Конец отчёта

–– CUETools DB Plugin V2.1.4

[CTDB TOCID: r.8s75onNg.LF9F5RAN9cItdsQo-] found
Submit result: r.8s75onNg.LF9F5RAN9cItdsQo- has been confirmed

Track | CTDB Status
1 | (54/54) Accurately ripped
2 | (54/54) Accurately ripped
3 | (54/54) Accurately ripped
4 | (54/54) Accurately ripped
5 | (54/54) Accurately ripped
6 | (54/54) Accurately ripped
7 | (54/54) Accurately ripped
8 | (54/54) Accurately ripped
9 | (54/54) Accurately ripped
10 | (54/54) Accurately ripped


Modern Talking - In The Garden Of Venus (1987) {1988 Hansa}


Thank you to the original uploader.