Tags
Language
Tags

Luba - Between The Earth & Sky (1986)

Posted By:
Luba - Between The Earth & Sky (1986)

Luba - Between The Earth & Sky (1986)
EAC Rip | FLAC (Tracks) + Cue + m3u + Log ~ 301 Mb | MP3 CBR320 ~ 125 Mb
Full Scans | 00:43:48 | RAR 5% Recovery
Pop, New Wave | Capitol Records / EMI #CDP 7 46433-2

Gorgeous, bell-like production, assisted by this Canadian singer, is just one reason to love this album. Her big voice is mixed out in front, but the instruments aren't lost. Sounds bubble up, leave an impression and vanish, having done their job. The strong tunes, all written by the singer, roll on one after the after, showcasing her irrepressible optimism. "Strength in Numbers," "What You Believe," "Act of Mercy" and "Innocent (With an Explanation)" stand out in a strong lineup. Kenny G guests on a powerful "How Many," produced by Narada Michael Walden. Even the classy cover art, showing an elongated Luba reaching for the sky, contributes to the overall package. If you love Paul Young or Simply Red, check this out.

~ Mark Allan, All Music

***************

Luba - Between The Earth & Sky (1986)

Luba - Between The Earth & Sky (1986)

Track List:

01. Strength in Numbers [4:27]
02. How Many [4:13]
03. What You Believe [4:27]
04. Even in the Darkest Moments [3:51]
05. Back to Emotion [4:07]
06. Act of Mercy [5:29]
07. Innocent (With an Explanation) [3:39]
08. Take It Like a Woman [4:33]
09. Lay Down Your Love [4:22]
10. Between the Earth and Sky [4:41]

Exact Audio Copy V1.0 beta 3 from 29. August 2011

EAC extraction logfile from 4. June 2013, 9:09

Luba / Between the Earth & Sky

Used drive : PIONEER DVD-RW DVR-106D Adapter: 0 ID: 0

Read mode : Secure
Utilize accurate stream : Yes
Defeat audio cache : Yes
Make use of C2 pointers : No

Read offset correction : 48
Overread into Lead-In and Lead-Out : No
Fill up missing offset samples with silence : Yes
Delete leading and trailing silent blocks : No
Null samples used in CRC calculations : Yes
Used interface : Native Win32 interface for Win NT & 2000
Gap handling : Appended to previous track

Used output format : User Defined Encoder
Selected bitrate : 1024 kBit/s
Quality : High
Add ID3 tag : No
Command line compressor : C:\Program Files (installed)\Exact Audio Copy\Flac\flac.exe
Additional command line options : -8 -V -T "ARTIST=%artist%" -T "TITLE=%title%" -T "ALBUM=%albumtitle%" -T "DATE=%year%" -T "TRACKNUMBER=%tracknr%" -T "GENRE=%genre%" -T "PERFORMER=%albuminterpret%" -T "COMPOSER=%composer%" %haslyrics%–tag-from-file=LYRICS="%lyricsfile%"%haslyrics% -T "ALBUMARTIST=%albumartist%" -T "DISCNUMBER=%cdnumber%" -T "TOTALDISCS=%totalcds%" -T "TOTALTRACKS=%numtracks%" -T "COMMENT=%comment%" %source% -o %dest%


TOC of the extracted CD

Track | Start | Length | Start sector | End sector
––––––––––––––––––––––––––––-
1 | 0:00.00 | 4:26.67 | 0 | 20016
2 | 4:26.67 | 4:14.20 | 20017 | 39086
3 | 8:41.12 | 4:27.63 | 39087 | 59174
4 | 13:09.00 | 3:51.62 | 59175 | 76561
5 | 17:00.62 | 4:09.28 | 76562 | 95264
6 | 21:10.15 | 5:29.10 | 95265 | 119949
7 | 26:39.25 | 3:40.57 | 119950 | 136506
8 | 30:20.07 | 4:34.60 | 136507 | 157116
9 | 34:54.67 | 4:23.05 | 157117 | 176846
10 | 39:17.72 | 4:40.50 | 176847 | 197896


Track 1

Filename D:\EAC Rips\Luba (1986) - Between the Earth & Sky [flac]\01 - Strength in Numbers.wav

Pre-gap length 0:00:02.00

Peak level 71.3 %
Extraction speed 3.7 X
Track quality 99.9 %
Test CRC 924291F8
Copy CRC 924291F8
Accurately ripped (confidence 5) [B2F09BC2] (AR v1)
Copy OK

Track 2

Filename D:\EAC Rips\Luba (1986) - Between the Earth & Sky [flac]\02 - How Many.wav

Pre-gap length 0:00:00.22

Peak level 67.0 %
Extraction speed 4.0 X
Track quality 99.9 %
Test CRC F089AA78
Copy CRC F089AA78
Accurately ripped (confidence 5) [6904CD32] (AR v1)
Copy OK

Track 3

Filename D:\EAC Rips\Luba (1986) - Between the Earth & Sky [flac]\03 - What You Believe.wav

Pre-gap length 0:00:01.13

Peak level 69.2 %
Extraction speed 4.9 X
Track quality 100.0 %
Test CRC 90AD344E
Copy CRC 90AD344E
Accurately ripped (confidence 5) [674F9B76] (AR v1)
Copy OK

Track 4

Filename D:\EAC Rips\Luba (1986) - Between the Earth & Sky [flac]\04 - Even in the Darkest Moments.wav

Pre-gap length 0:00:00.70

Peak level 74.5 %
Extraction speed 5.2 X
Track quality 100.0 %
Test CRC C692CE57
Copy CRC C692CE57
Accurately ripped (confidence 5) [8561E01A] (AR v1)
Copy OK

Track 5

Filename D:\EAC Rips\Luba (1986) - Between the Earth & Sky [flac]\05 - Back to Emotion.wav

Pre-gap length 0:00:01.26

Peak level 72.9 %
Extraction speed 5.4 X
Track quality 100.0 %
Test CRC 784E523C
Copy CRC 784E523C
Accurately ripped (confidence 5) [F29A7AD6] (AR v1)
Copy OK

Track 6

Filename D:\EAC Rips\Luba (1986) - Between the Earth & Sky [flac]\06 - Act of Mercy.wav

Pre-gap length 0:00:02.04

Peak level 79.4 %
Extraction speed 6.1 X
Track quality 100.0 %
Test CRC FAC44E92
Copy CRC FAC44E92
Accurately ripped (confidence 5) [5E0D5BD6] (AR v1)
Copy OK

Track 7

Filename D:\EAC Rips\Luba (1986) - Between the Earth & Sky [flac]\07 - Innocent (With an Explanation).wav

Pre-gap length 0:00:00.44

Peak level 77.7 %
Extraction speed 5.3 X
Track quality 99.9 %
Test CRC D931F65F
Copy CRC D931F65F
Accurately ripped (confidence 5) [2E4F0CFA] (AR v1)
Copy OK

Track 8

Filename D:\EAC Rips\Luba (1986) - Between the Earth & Sky [flac]\08 - Take It Like a Woman.wav

Pre-gap length 0:00:01.40

Peak level 77.8 %
Extraction speed 6.5 X
Track quality 100.0 %
Test CRC EFAF66BB
Copy CRC EFAF66BB
Accurately ripped (confidence 5) [F4696B33] (AR v1)
Copy OK

Track 9

Filename D:\EAC Rips\Luba (1986) - Between the Earth & Sky [flac]\09 - Lay Down Your Love.wav

Pre-gap length 0:00:01.60

Peak level 69.1 %
Extraction speed 6.8 X
Track quality 100.0 %
Test CRC FC4A965B
Copy CRC FC4A965B
Accurately ripped (confidence 5) [E65589CA] (AR v1)
Copy OK

Track 10

Filename D:\EAC Rips\Luba (1986) - Between the Earth & Sky [flac]\10 - Between the Earth and Sky.wav

Pre-gap length 0:00:01.56

Peak level 75.3 %
Extraction speed 7.1 X
Track quality 100.0 %
Test CRC 426014A5
Copy CRC 426014A5
Accurately ripped (confidence 5) [D02F6287] (AR v1)
Copy OK


All tracks accurately ripped

No errors occurred

End of status report

–– CUETools DB Plugin V2.1.4

[CTDB TOCID: o_sYLaoVCVk4scNRc9ZGZaR3UJ4-] disk not present in database
Submit result: o_sYLaoVCVk4scNRc9ZGZaR3UJ4- has been uploaded


==== Log checksum 41C8A2149ED88D4AA195FA722EAF7B82320DB3DECBBAF049A617F3A88596DA81 ====

[CUETools log; Date: 07.03.2018 22:12:47; Version: 2.1.5]
[CTDB TOCID: o_sYLaoVCVk4scNRc9ZGZaR3UJ4-] found.
Track | CTDB Status
1 | (5/5) Accurately ripped
2 | (5/5) Accurately ripped
3 | (5/5) Accurately ripped
4 | (5/5) Accurately ripped
5 | (5/5) Accurately ripped
6 | (5/5) Accurately ripped
7 | (5/5) Accurately ripped
8 | (5/5) Accurately ripped
9 | (5/5) Accurately ripped
10 | (5/5) Accurately ripped
[AccurateRip ID: 00107498-0083d404-770a4e0a] found.
Track [ CRC | V2 ] Status
01 [b2f09bc2|dd4a52b1] (4+2/6) Accurately ripped
02 [6904cd32|0b9d5b78] (4+2/6) Accurately ripped
03 [674f9b76|559a0660] (4+0/4) Accurately ripped
04 [8561e01a|b7153012] (4+0/4) Accurately ripped
05 [f29a7ad6|6d2577a5] (4+0/4) Accurately ripped
06 [5e0d5bd6|9e0a5601] (4+0/4) Accurately ripped
07 [2e4f0cfa|991bfac7] (4+2/6) Accurately ripped
08 [f4696b33|78f9488a] (4+0/4) Accurately ripped
09 [e65589ca|c003bc8c] (4+0/4) Accurately ripped
10 [d02f6287|f8ce4b86] (4+0/4) Accurately ripped

Track Peak [ CRC32 ] [W/O NULL] [ LOG ]
– 79,4 [9DCE9180] [AC402E7C]
01 71,3 [924291F8] [E62544DA] CRC32
02 67,0 [F089AA78] [5257F6EA] CRC32
03 69,2 [90AD344E] [681614F5] CRC32
04 74,5 [C692CE57] [E7242E74] CRC32
05 72,9 [784E523C] [7F71CAB0] CRC32
06 79,4 [FAC44E92] [027F6575] CRC32
07 77,7 [D931F65F] [8571BBE8] CRC32
08 77,8 [EFAF66BB] [836825FB] CRC32
09 69,1 [FC4A965B] [693EF2B0] CRC32
10 75,3 [426014A5] [A4F18324] CRC32

Luba - Between The Earth & Sky (1986)


All thanks go to the original ripper(s) …

>>> My Blog <<<

DOWNLOAD: