Subcategories

Love/Hate - Blackout In The Red Room (1990) {Japan 1st Press}

Posted By: popsakov
Love/Hate - Blackout In The Red Room (1990) {Japan 1st Press}

Love/Hate - Blackout In The Red Room (1990) {Japan 1st Press}
EAC Rip | FLAC (Img) + Cue + Log ~ 354 Mb | MP3 CBR320 ~ 140 Mb
Full Scans | 00:40:47 | RAR 5% Recovery
Hard Rock, Garage Rock, Punk | CBS / Sony Records #CSCS 5103

On the surface, the music of Love/Hate's debut may seem no different than most any late-'80s L.A. pop-metal, but the band's performance exudes a fury and belligerence that posers such as Poison or Warrant could never even grasp; actually, they would turn on their heels and run away screaming from it. The band literally "plays on 11," from the very first crunching power chord of the title track to the last cymbal crash of the frenzied "Hell Ca., Pop. 4." In between, they alternate the sheer power of "Rock Queen," "One More Round," and "Straightjacket" with the haunting yet beautiful melodies of "Mary Jane" and "She's an Angel." The strangely message-oriented "Why Do You Think They Call It Dope?" does stick out like a sore thumb – no thanks to its funk-metal bassline and overtly commercial mix. But with delirious performances, such as guitarist Jon E. Love's on the massive "Tumbleweed," there is little here to criticize. Blackout in the Red Room is a very impressive album.

~ Eduardo Rivadavia, All Music

***************

Love/Hate - Blackout In The Red Room (1990) {Japan 1st Press}

Love/Hate - Blackout In The Red Room (1990) {Japan 1st Press}

Track List:

01. Blackout In The Red Room [2:34]
02. Rock Queen [2:21]
03. Tumbleweed [3:32]
04. Why Do You Think They Call It Dope? [3:57]
05. Fuel To Run [3:18]
06. One More Round [3:22]
07. She's An Angel [4:09]
08. Mary Jane [4:31]
09. Straightjacket [3:15]
10. Slutsy Tipsy [3:09]
11. Slave Girl [3:51]
12. Hell, CA., Pop. 4 [2:49]

Personnel:
Jizzy Pearl – vocals
Jon E. Love – guitar
Skid (Rose) – bass, rhythm guitar on "Slave Girl", 12-string guitar on "She's an Angel"
Joey Gold – drums

Additional musicians:
Greg Gottlieb – cellos on "Why Do You Think They Call It Dope?" and "Mary Jane"
Paul Lewolt – bagpipes on "Why Do You Think They Call It Dope?"
David Kahne – cellos on "She's an Angel"

Exact Audio Copy V1.1 from 23. June 2015

Отчёт EAC об извлечении, выполненном 9. ноября 2016, 20:23

Love/Hate / Blackout In The Red Room (CSCS 5103)

Дисковод: PLEXTOR BD-R PX-B950SA Adapter: 1 ID: 0

Режим чтения : Достоверность
Использование точного потока : Да
Отключение кэша аудио : Да
Использование указателей C2 : Нет

Коррекция смещения при чтении : 6
Способность читать области Lead-in и Lead-out : Нет
Заполнение пропущенных сэмплов тишиной : Да
Удаление блоков с тишиной в начале и конце : Нет
При вычислениях CRC использовались нулевые сэмплы : Да
Интерфейс : Встроенный Win32-интерфейс для Win NT/2000

Выходной формат : Пользовательский кодировщик
Выбранный битрейт : 1024 kBit/s
Качество : Высокий
Добавление ID3-тега : Нет
Утилита сжатия : C:\Program Files (x86)\Exact Audio Copy\FLAC\FLAC.EXE
Дополнительные параметры : -6 -V -T "ARTIST=%artist%" -T "TITLE=%title%" -T "ALBUM=%albumtitle%" -T "DATE=%year%" -T "TRACKNUMBER=%tracknr%" -T "GENRE=%genre%" -T "COMMENT=%comment%" -T "BAND=%albuminterpret%" -T "ALBUMARTIST=%albuminterpret%" -T "COMPOSER=%composer%" %haslyrics%–tag-from-file=LYRICS="%lyricsfile%"%haslyrics% -T "DISCNUMBER=%cdnumber%" -T "TOTALDISCS=%totalcds%" -T "TOTALTRACKS=%numtracks%" %hascover%–picture="%coverfile%"%hascover% %source% -o %dest%


TOC извлечённого CD

Трек | Старт | Длительность | Начальный сектор | Конечный сектор
––––––––––––––––––––––––––––––––––-
1 | 0:00.00 | 2:33.60 | 0 | 11534
2 | 2:33.60 | 2:21.07 | 11535 | 22116
3 | 4:54.67 | 3:31.38 | 22117 | 37979
4 | 8:26.30 | 3:57.15 | 37980 | 55769
5 | 12:23.45 | 3:17.72 | 55770 | 70616
6 | 15:41.42 | 3:22.35 | 70617 | 85801
7 | 19:04.02 | 4:08.40 | 85802 | 104441
8 | 23:12.42 | 4:31.15 | 104442 | 124781
9 | 27:43.57 | 3:14.65 | 124782 | 139396
10 | 30:58.47 | 3:09.00 | 139397 | 153571
11 | 34:07.47 | 3:51.00 | 153572 | 170896
12 | 37:58.47 | 2:48.48 | 170897 | 183544


Характеристики диапазона извлечения и сообщения об ошибках

Выбранный диапазон

Имя файла G:\RIP\Love-Hate 1990 Japanese Pressing FLAC by alzal\Love,Hate - Blackout In The Red Room (CSCS 5103).wav

Пиковый уровень 100.0 %
Скорость извлечения 3.1 X
Качество диапазона 100.0 %
CRC теста 3382A18E
CRC копии 3382A18E
Копирование… OK

Ошибок не произошло


AccurateRip: сводка

Трек 1 : извлечено точно (доверие 1) [E8B1AC4F] (AR v2)
Трек 2 : извлечено точно (доверие 1) [51A31FA4] (AR v2)
Трек 3 : извлечено точно (доверие 1) [EE7453DE] (AR v2)
Трек 4 : извлечено точно (доверие 1) [44EAE633] (AR v2)
Трек 5 : извлечено точно (доверие 1) [3BF21884] (AR v2)
Трек 6 : извлечено точно (доверие 1) [475B3871] (AR v2)
Трек 7 : извлечено точно (доверие 1) [ECFF9357] (AR v2)
Трек 8 : извлечено точно (доверие 1) [83AEE960] (AR v2)
Трек 9 : извлечено точно (доверие 1) [5A1DB4E9] (AR v2)
Трек 10 : извлечено точно (доверие 1) [6E2589CE] (AR v2)
Трек 11 : извлечено точно (доверие 1) [EE86DA2B] (AR v2)
Трек 12 : извлечено точно (доверие 1) [CBD8EE5F] (AR v2)

Все треки извлечены точно

Конец отчёта

–– CUETools DB Plugin V2.1.6

[CTDB TOCID: KZ6hnYf.PDYrOAUP1MPOMblEYwo-] disk not present in database
Submit result: KZ6hnYf.PDYrOAUP1MPOMblEYwo- has been uploaded


==== Контрольная сумма отчёта 831E8EBD593F18FF74A714C1AB5BEB2F82C08F7F9F971058676FD29800B60766 ====

foobar2000 1.2.6 / Dynamic Range Meter 1.1.1
log date: 2017-06-06 14:40:10

––––––––––––––––––––––––––––––––––––––––
Analyzed: Love/Hate / Blackout In The Red Room (CSCS 5103)
––––––––––––––––––––––––––––––––––––––––

DR Peak RMS Duration Track
––––––––––––––––––––––––––––––––––––––––
DR8 -0.31 dB -9.94 dB 2:34 01-Blackout In The Red Room
DR9 -0.12 dB -10.53 dB 2:21 02-Rock Queen
DR9 -0.24 dB -9.96 dB 3:32 03-Tumbleweed
DR9 -0.01 dB -10.63 dB 3:57 04-Why Do You Think They Call It Dope?
DR9 0.00 dB -11.86 dB 3:18 05-Fuel To Run
DR9 -0.03 dB -10.50 dB 3:22 06-One More Round
DR8 -0.09 dB -10.87 dB 4:09 07-She's An Angel
DR10 0.00 dB -11.40 dB 4:31 08-Mary Jane
DR8 0.00 dB -9.33 dB 3:15 09-Straightjacket
DR9 0.00 dB -10.75 dB 3:09 10-Slutsy Tipsy
DR9 -0.03 dB -10.52 dB 3:51 11-Slave Girl
DR9 -0.17 dB -9.99 dB 2:49 12-Hell, CA., Pop. 4
––––––––––––––––––––––––––––––––––––––––

Number of tracks: 12
Official DR value: DR9

Samplerate: 44100 Hz
Channels: 2
Bits per sample: 16
Bitrate: 1016 kbps
Codec: FLAC
================================================================================

[CUETools log; Date: 06.06.2017 14:40:22; Version: 2.1.5]
[CTDB TOCID: KZ6hnYf.PDYrOAUP1MPOMblEYwo-] found.
Track | CTDB Status
1 | (2/2) Accurately ripped
2 | (2/2) Accurately ripped
3 | (2/2) Accurately ripped
4 | (2/2) Accurately ripped
5 | (2/2) Accurately ripped
6 | (2/2) Accurately ripped
7 | (2/2) Accurately ripped
8 | (2/2) Accurately ripped
9 | (2/2) Accurately ripped
10 | (2/2) Accurately ripped
11 | (2/2) Accurately ripped
12 | (2/2) Accurately ripped
[AccurateRip ID: 0011b508-00a83359-a4098f0c] found.
Track [ CRC | V2 ] Status
01 [d59ec8b8|e8b1ac4f] (0+1/2) Accurately ripped
02 [8a5a51e6|51a31fa4] (0+1/2) Accurately ripped
03 [cf163a9b|ee7453de] (0+1/2) Accurately ripped
04 [7c09e487|44eae633] (0+1/2) Accurately ripped
05 [d2ba74e8|3bf21884] (0+1/2) Accurately ripped
06 [642ac4eb|475b3871] (0+1/1) Accurately ripped
07 [5fb73cfe|ecff9357] (0+1/2) Accurately ripped
08 [eaaa3622|83aee960] (0+1/2) Accurately ripped
09 [269471b1|5a1db4e9] (0+1/2) Accurately ripped
10 [4fb31117|6e2589ce] (0+1/2) Accurately ripped
11 [fad965ec|ee86da2b] (0+1/2) Accurately ripped
12 [12de75c6|cbd8ee5f] (0+1/2) Accurately ripped
Offsetted by -6:
01 [ff776ada] (1/2) Accurately ripped
02 [c45e2c05] (1/2) Accurately ripped
03 [1bc6c680] (1/2) Accurately ripped
04 [12feb8bc] (1/2) Accurately ripped
05 [53dd0a6e] (1/2) Accurately ripped
06 [38dd55b5] (0/1) No match
07 [fc757b7e] (1/2) Accurately ripped
08 [25df34fc] (1/2) Accurately ripped
09 [f1198e99] (1/2) Accurately ripped
10 [b5455426] (1/2) Accurately ripped
11 [2b925e85] (1/2) Accurately ripped
12 [879b810b] (1/2) Accurately ripped

Track Peak [ CRC32 ] [W/O NULL] [ LOG ]
– 100,0 [3382A18E] [1B014AB7] CRC32
01 96,5 [12A49BA0] [CF9973C7]
02 98,6 [9D0862BD] [EFB2DF0F]
03 97,3 [DC7FFA4B] [D6EE52A5]
04 99,9 [AFA3F953] [F57ECE0D]
05 99,9 [45350951] [22BF79AB]
06 99,7 [2261A0C4] [EDD0C0C8]
07 98,9 [7F48AC3A] [8089F149]
08 100,0 [3088AEE9] [97F577E5]
09 100,0 [D92AA700] [3A4412E9]
10 100,0 [A88FD884] [95579D2F]
11 99,6 [8C5BA23C] [B6CBF912]
12 98,0 [53515ECF] [578DCCCF]

Love/Hate - Blackout In The Red Room (1990) {Japan 1st Press}


All thanks go to alzal

>>> My Blog <<<

DOWNLOAD: