Subcategories

Louisiana Red - The Blues Spectrum Of Louisiana Red (1998)

Posted By: popsakov
Louisiana Red - The Blues Spectrum Of Louisiana Red (1998)

Louisiana Red - The Blues Spectrum Of Louisiana Red (1998)
EAC Rip | FLAC (Img) + Cue + Log ~ 315 Mb | MP3 CBR320 ~ 143 Mb
Full Scans | 00:53:04 | RAR 5% Recovery
Modern Electric Blues, Louisiana Blues | JSP Records #JSPCD 803

Louisiana Red is now due his rightful place as one of the giants of the blues scene. He has a stunningly intense and eclectic guitar style straight from the deep Mississippi. This disc is a representation of the various settings and approaches he took for the JSP label over the space of many years.

***************

Louisiana Red - The Blues Spectrum Of Louisiana Red (1998)

Louisiana Red - The Blues Spectrum Of Louisiana Red (1998)

Track List:

01. Sweet Leg Girl [0:04:57.66]
02. Vivienne [0:04:56.73]
03. Soon One Morning [0:03:36.82]
04. The Women That I've Known [0:05:51.26]
05. The Best Place [0:05:32.13]
06. Standing Like A Stone [0:05:23.86]
07. Love Me Mama [0:04:06.77]
08. I Wish I Could Lead My Life Again [0:04:54.66]
09. Lamplight Baby [0:03:54.42]
10. After Awhile [0:03:27.84]
11. Hello, Mean Old World [0:06:22.13]

Exact Audio Copy V0.99 prebeta 4 from 23. January 2008

Отчёт EAC об извлечении, выполненном 21. октября 2010, 13:55

Louisiana Red / The Blues Spectrum of Louisiana Red

Дисковод: PLEXTOR DVDR PX-820A Adapter: 3 ID: 1

Режим чтения : Достоверность
Использование точного потока : Да
Отключение кэша аудио : Да
Использование указателей C2 : Нет

Коррекция смещения при чтении : 48
Способность читать области Lead-in и Lead-out : Нет
Заполнение пропущенных сэмплов тишиной : Да
Удаление блоков с тишиной в начале и конце : Нет
При вычислениях CRC использовались нулевые сэмплы : Да
Интерфейс : Встроенный Win32-интерфейс для Win NT/2000

Выходной формат : Внутренние WAV-операции
Формат сэмплов : 44.100 Гц; 16 бит; стерео


TOC извлечённого CD

Трек | Старт | Длительность | Начальный сектор | Конечный сектор
––––––––––––––––––––––––––––––––––-
1 | 0:00.00 | 4:57.50 | 0 | 22324
2 | 4:57.50 | 4:56.55 | 22325 | 44579
3 | 9:54.30 | 3:36.62 | 44580 | 60841
4 | 13:31.17 | 5:51.20 | 60842 | 87186
5 | 19:22.37 | 5:32.10 | 87187 | 112096
6 | 24:54.47 | 5:23.65 | 112097 | 136386
7 | 30:18.37 | 4:06.58 | 136387 | 154894
8 | 34:25.20 | 4:54.50 | 154895 | 176994
9 | 39:19.70 | 3:54.32 | 176995 | 194576
10 | 43:14.27 | 3:27.63 | 194577 | 210164
11 | 46:42.15 | 6:22.10 | 210165 | 238824


Характеристики диапазона извлечения и сообщения об ошибках

Выбранный диапазон

Имя файла D:\КОЛЛЕКЦИЯ 8\THE BLUES SPECTRUM OF LOUISIANA RED\Louisiana Red - The Blues Spectrum of Louisiana Red.wav

Пиковый уровень 100.0 %
Качество диапазона 100.0 %
CRC копии D46F7F7F
Копирование… OK

Ошибок не произошло


AccurateRip: сводка

Трек 1 точное извлечение (доверие 1) [ABA0E826]
Трек 2 точное извлечение (доверие 1) [E1E75262]
Трек 3 точное извлечение (доверие 1) [3CB756B0]
Трек 4 точное извлечение (доверие 1) [77C47034]
Трек 5 точное извлечение (доверие 1) [00C4D4E2]
Трек 6 точное извлечение (доверие 1) [097860F6]
Трек 7 точное извлечение (доверие 1) [62A5B468]
Трек 8 точное извлечение (доверие 1) [C25FA972]
Трек 9 точное извлечение (доверие 1) [EA8851C6]
Трек 10 точное извлечение (доверие 1) [EFAA5D01]
Трек 11 точное извлечение (доверие 1) [1C428370]

Все треки извлечены точно

Конец отчёта

[CUETools log; Date: 26.03.2020 20:24:11; Version: 2.1.6]
[CTDB TOCID: sqF66eMSeXSKYZbY9b.QM7HYxps-] found.
Track | CTDB Status
1 | (2/2) Accurately ripped
2 | (2/2) Accurately ripped
3 | (2/2) Accurately ripped
4 | (2/2) Accurately ripped
5 | (2/2) Accurately ripped
6 | (2/2) Accurately ripped
7 | (2/2) Accurately ripped
8 | (2/2) Accurately ripped
9 | (2/2) Accurately ripped
10 | (2/2) Accurately ripped
11 | (2/2) Accurately ripped
[AccurateRip ID: 0015f49b-00bdd409-a00c700b] found.
Track [ CRC | V2 ] Status
01 [aba0e826|545a6f8c] (1+0/1) Accurately ripped
02 [e1e75262|2baa76c1] (1+0/1) Accurately ripped
03 [3cb756b0|6e0760f4] (1+0/1) Accurately ripped
04 [77c47034|995599e3] (1+0/1) Accurately ripped
05 [00c4d4e2|9091ccea] (1+0/1) Accurately ripped
06 [097860f6|ab7d5cc4] (1+0/1) Accurately ripped
07 [62a5b468|85b2d9fb] (1+0/1) Accurately ripped
08 [c25fa972|563cc94b] (1+0/1) Accurately ripped
09 [ea8851c6|215307d6] (1+0/1) Accurately ripped
10 [efaa5d01|0401891b] (1+0/1) Accurately ripped
11 [1c428370|bbdab30d] (1+0/1) Accurately ripped

Track Peak [ CRC32 ] [W/O NULL] [ LOG ]
– 100,0 [D46F7F7F] [7B890538] CRC32
01 91,5 [274351C7] [B358BB53]
02 97,6 [D82AFC48] [59B1B52F]
03 100,0 [429404FA] [1E393713]
04 96,2 [8F8B3FFD] [7F0F30D7]
05 99,0 [01C43145] [97A6F465]
06 95,4 [A575C494] [DF05A0EA]
07 99,7 [12C2E84E] [9C65D5E3]
08 65,5 [C7CC9954] [003356C3]
09 70,2 [E25E328A] [40847881]
10 99,1 [CD62704C] [965CD3AD]
11 93,1 [D3E2C95F] [2D22AAD7]

Louisiana Red - The Blues Spectrum Of Louisiana Red (1998)


See also:

David Maxwell & Louisiana Red - You Got To Move (2009)
Louisiana Red & Little ...oint - Memphis Mojo (2011)

All thanks go to ЗУБ2007

>>> My Blog <<<

DOWNLOAD: