Subcategories

Living Colour - Ausländer (CD5) (1993) {Epic} **[RE-UP]**

Posted By: TestTickles
Living Colour - Ausländer (CD5) (1993) {Epic} **[RE-UP]**

Living Colour - Ausländer (CD5) (1993) {Epic}
EAC Rip | FLAC with CUE and log | scans | 192 mb
MP3 CBR 320kbps | RAR | 64 mb
Genre: hard rock, electronica, alternative

"Ausländer" is the 1993 single by American black rock band Living Colour. This US CD5 features remixes of the song plus a cover of Prince's "17 Days". This was released by Epic Recprds.

Living Colour - Ausländer (CD5) (1993) {Epic} **[RE-UP]**

1. Ausländer (Album Version)
2. Ausländer (Remix)
3. Ausländer (Dub Länder Mix)
4. Ausländer (Overload Mix)
5. Ausländer (Advanced Technology Mix)
6. 17 Days

–-
Vernon Reid-guitars
Corey Glover-vocals
Doug Wimbish-bass
William Calhoun-drums

Produced by Ron Saint Germain and Living Colour
Tracks 2-4: additional production and remix by Adrian Sherwood and Skip McDonald
Track 5 remixed by Sasha KMFDM, Lee Popa & Chris Shepard

Track 6 recorded and mixed by Ron Saint Germain

EAC extraction logfile from 4. July 2007, 11:49 for CD
Living Colour / Auslander (US CD5)

Used drive : LITE-ON DVDRW SOHW-1633S Adapter: 0 ID: 0
Read mode : Secure with NO C2, accurate stream, disable cache
Read offset correction : 12
Overread into Lead-In and Lead-Out : No

Used output format : Internal WAV Routines
44.100 Hz; 16 Bit; Stereo

Other options :
Fill up missing offset samples with silence : Yes
Delete leading and trailing silent blocks : No
Installed external ASPI interface


Track 1
Filename D:\FLAC\Living Colour - Auslander (CD5) (1993) [FLAC] {Epic}\01 - Auslander (Album Version).wav

Pre-gap length 0:00:02.00

Peak level 99.0 %
Track quality 99.9 %
Test CRC 94CDFF04
Copy CRC 94CDFF04
Copy OK

Track 2
Filename D:\FLAC\Living Colour - Auslander (CD5) (1993) [FLAC] {Epic}\02 - Auslander (Remix).wav

Pre-gap length 0:00:00.69

Peak level 100.0 %
Track quality 100.0 %
Test CRC C49EEF8B
Copy CRC C49EEF8B
Copy OK

Track 3
Filename D:\FLAC\Living Colour - Auslander (CD5) (1993) [FLAC] {Epic}\03 - Auslander (Dub Lander Mix).wav

Pre-gap length 0:00:00.37

Peak level 100.0 %
Track quality 100.0 %
Test CRC C4F5AA33
Copy CRC C4F5AA33
Copy OK

Track 4
Filename D:\FLAC\Living Colour - Auslander (CD5) (1993) [FLAC] {Epic}\04 - Auslander (Overload Mix).wav

Pre-gap length 0:00:00.02

Peak level 83.7 %
Track quality 100.0 %
Test CRC D34438CC
Copy CRC D34438CC
Copy OK

Track 5
Filename D:\FLAC\Living Colour - Auslander (CD5) (1993) [FLAC] {Epic}\05 - Auslander (Advanced Technology Mix).wav

Pre-gap length 0:00:00.02

Peak level 100.0 %
Track quality 100.0 %
Test CRC E34015EE
Copy CRC E34015EE
Copy OK

Track 6
Filename D:\FLAC\Living Colour - Auslander (CD5) (1993) [FLAC] {Epic}\06 - 17 Days.wav

Pre-gap length 0:00:00.04

Peak level 99.1 %
Track quality 99.9 %
Test CRC C4BF30DF
Copy CRC C4BF30DF
Copy OK

No errors occured


End of status report


Living Colour - Ausländer (CD5) (1993) {Epic} **[RE-UP]**