Subcategories
Please register here if you want to download anything!

If domain in your address bar is different from the list below
PLEASE LEAVE THAT SITE IMMEDIATELY
❗IT'S A DANGEROUS FAKE❗



Spicy Magazines for Men! ;-)

Lindsey Buckingham - Gift Of Screws (2008)

Posted By: v3122
Lindsey Buckingham - Gift Of Screws (2008)

Lindsey Buckingham - Gift Of Screws (2008)
EAC | Flac(Image) + Cue + Log & MP3 CBR 320Kbps
Reprise, 512970-2 | ~ 289 or 92 Mb | Scans(png) -> 80 Mb
Rock

wo studio albums in three years may not seem to be a breakneck pace for anybody else, but for Lindsey Buckingham it is no less than pure acceleration. Indeed if we include the live album that came out in 2007 between the two, it's like three outings in as many years – warp speed for an artist like Buckingham who has been known to go more than a decade between his own offerings outside of Fleetwood Mac. On 2006's Under the Skin, Buckingham issued a soft-spoken songwriter's disc. It was all acoustic, deeply reflective, poignant, profound, and drenched in beauty. It was also criminally under-noticed. Somewhere he promised he'd release an electric rock record in the future. Gift of Screws (referencing the poetry of Emily Dickinson) may not be all the way there, but more often than not it offers the kind of rocking, heady electric pop he's known for, as well as some glorious, lyrically sophisticated, acoustic singer/songwriter fare that bears his signature alone. Some of these tracks were written for an aborted session begun in the 1990s. Still others made it onto the Mac's Say You Will, and still others are brand-spanking new.
The set opens with "Great Day," a pulsing, urgent, minor-key rocker that blends electric and acoustic guitars, organic and electronic percussion, and some hushed keyboards. It explodes near the end with a scorching, burn-up-the-wire guitar solo he usually only plays live. "Did You Miss Me?," written with wife Kristen Buckingham and featuring drums by Walfredo Reyes, could have appeared on any of Fleetwood Mac's blissed-out, bittersweet '70s recordings. The weave of guitars, layered backing vocals, and drop-dead catchy chorus is pure Buckingham. Mick Fleetwood and John McVie are the rhythm section on the rumbling multi-dimensional blues-winder "Wait for Me," which also offers more evidence of the guitar slinger emerging from the shadows to take place center stage before giving way to a dense multi-textured chorus that transcends the blues without leaving them for dead. Fleetwood also adds drums to "The Right Place to Fade," with bassist John Pierce. Acoustic guitars meld enormous power chords and stinging lead fills in a frenetically paced pop song. Along the way, there are hesitant, confessional, acoustically orchestrated songs where the darkness almost swallows the light as in "Bel Air Rain." The wall of strings fingerpicking style adds to the emotional heft of songs like "Time Precious Time," especially as the vocal effects give the sound a nearly three-dimensional quality. The title track is a balls-out rocker that places '60s rave-up garage rock up against '70s glam in a storm of guitars and clattering drums. The closer, "Treason," is a dignified near-anthemic pop song with a gospel chorus that is unlike any song Buckingham's written before and sends the set out in a very elegant and deeply moving way.
What it all means is simple: that Buckingham is not only still relevant, but he's also a pioneer in terms of craft, execution, and production, and has plenty to teach the current generation about making excellent records and never resting on your laurels. Gift of Screws is a standout even in his catalog.

by Thom Jurek, allmusic
Lindsey Buckingham - Gift Of Screws (2008)


Lindsey Buckingham - Gift Of Screws (2008):

Lindsey Buckingham - Gift Of Screws (2008)

Tracklist:

01. Great Day [03:14]
02. Time Precious Time [04:27]
03. Did You Miss Me [03:58]
04. Wait For You [05:02]
05. Love Runs Deeper [03:58]
06. Bel Air Rain [03:51]
07. The Right Place To Fade [04:04]
08. Gift Of Screws [02:56]
09. Underground [03:01]
10. Treason [04:28]

Exact Audio Copy V0.99 prebeta 5 from 4. May 2009

EAC extraction logfile from 21. October 2012, 2:12

LINDSEY BUCKINGHAM / Gift Of Screws

Used drive : ASUS DRW-24B3ST Adapter: 2 ID: 0

Read mode : Secure
Utilize accurate stream : Yes
Defeat audio cache : Yes
Make use of C2 pointers : No

Read offset correction : 6
Overread into Lead-In and Lead-Out : No
Fill up missing offset samples with silence : Yes
Delete leading and trailing silent blocks : No
Null samples used in CRC calculations : Yes
Used interface : Native Win32 interface for Win NT & 2000

Used output format : User Defined Encoder
Selected bitrate : 1024 kBit/s
Quality : High
Add ID3 tag : No
Command line compressor : C:\Program Files (x86)\EAC\WV\wavpack.exe
Additional command line options : -h -hh -m %s %d


TOC of the extracted CD

Track | Start | Length | Start sector | End sector
––––––––––––––––––––––––––––-
1 | 0:00.00 | 3:14.69 | 0 | 14618
2 | 3:14.69 | 4:27.29 | 14619 | 34672
3 | 7:42.23 | 3:58.32 | 34673 | 52554
4 | 11:40.55 | 5:02.18 | 52555 | 75222
5 | 16:42.73 | 3:58.22 | 75223 | 93094
6 | 20:41.20 | 3:51.39 | 93095 | 110458
7 | 24:32.59 | 4:04.72 | 110459 | 128830
8 | 28:37.56 | 2:56.00 | 128831 | 142030
9 | 31:33.56 | 3:01.40 | 142031 | 155645
10 | 34:35.21 | 4:28.24 | 155646 | 175769


Range status and errors

Selected range

Filename G:\FLEETWOOD MAC\2008- Lindsey Buckingham- Gift Of Screws (US 2008 Reprise • 512970-2)\LINDSEY BUCKINGHAM - Gift Of Screws.wav

Peak level 98.8 %
Range quality 100.0 %
Test CRC 603A3036
Copy CRC 603A3036
Copy OK

No errors occurred


AccurateRip summary

Track 1 accurately ripped (confidence 58) [12C5A5A3]
Track 2 accurately ripped (confidence 58) [A8665DB8]
Track 3 accurately ripped (confidence 58) [1ACC57F0]
Track 4 accurately ripped (confidence 58) [E3CFAFEC]
Track 5 accurately ripped (confidence 58) [07CA2845]
Track 6 accurately ripped (confidence 58) [EEAA9344]
Track 7 accurately ripped (confidence 58) [FB7D2B73]
Track 8 accurately ripped (confidence 58) [1534DF48]
Track 9 accurately ripped (confidence 57) [6AC66112]
Track 10 accurately ripped (confidence 55) [3222C927]

All tracks accurately ripped

End of status report

foobar2000 1.2.9 / Dynamic Range Meter 1.1.1
log date: 2017-02-23 10:52:13

––––––––––––––––––––––––––––––––––––––––
Analyzed: LINDSEY BUCKINGHAM / Gift Of Screws
––––––––––––––––––––––––––––––––––––––––

DR Peak RMS Duration Track
––––––––––––––––––––––––––––––––––––––––
DR6 -0.10 dB -9.69 dB 3:15 01-Great Day
DR6 -0.10 dB -9.55 dB 4:27 02-Time Precious Time
DR6 -0.10 dB -9.17 dB 3:58 03-Did You Miss Me
DR6 -0.10 dB -8.43 dB 5:02 04-Wait For You
DR5 -0.10 dB -8.07 dB 3:58 05-Love Runs Deeper
DR8 -0.10 dB -12.66 dB 3:52 06-Bel Air Rain
DR6 -0.10 dB -7.78 dB 4:05 07-The Right Place To Fade
DR6 -0.10 dB -7.86 dB 2:56 08-Gift Of Screws
DR7 -0.10 dB -10.08 dB 3:02 09-Underground
DR6 -0.10 dB -8.69 dB 4:28 10-Treason
––––––––––––––––––––––––––––––––––––––––

Number of tracks: 10
Official DR value: DR6

Samplerate: 44100 Hz
Channels: 2
Bits per sample: 16
Bitrate: 1005 kbps
Codec: FLAC

[CUETools log; Date: 23.02.2017 10:52:04; Version: 2.1.4]
[CTDB TOCID: lPjQHWk9e19Gt8Qsnzeg.TPjvFI-] found.
Track | CTDB Status
1 | (73/74) Accurately ripped
2 | (73/74) Accurately ripped
3 | (73/74) Accurately ripped
4 | (73/74) Accurately ripped
5 | (72/74) Accurately ripped
6 | (72/74) Accurately ripped
7 | (72/74) Accurately ripped
8 | (72/74) Accurately ripped
9 | (72/74) Accurately ripped
10 | (73/74) Accurately ripped
[AccurateRip ID: 000eff76-0077c8f9-8109270a] found.
Track [ CRC | V2 ] Status
01 [12c5a5a3|6579a50e] (058+065/201) Accurately ripped
02 [a8665db8|c6c76223] (058+064/201) Accurately ripped
03 [1acc57f0|2cdfddec] (058+066/203) Accurately ripped
04 [e3cfafec|b4b14ffa] (058+066/203) Accurately ripped
05 [07ca2845|f2ea9880] (058+066/202) Accurately ripped
06 [eeaa9344|bf70ac2d] (058+066/203) Accurately ripped
07 [fb7d2b73|9d9a56c8] (058+066/202) Accurately ripped
08 [1534df48|76720154] (058+066/203) Accurately ripped
09 [6ac66112|d49c96d3] (057+065/200) Accurately ripped
10 [3222c927|75c61090] (055+066/199) Accurately ripped
Offsetted by -6:
01 [edbc1b5b] (006/201) Accurately ripped
02 [a7396826] (006/201) Accurately ripped
03 [22af1310] (006/203) Accurately ripped
04 [906aff08] (006/203) Accurately ripped
05 [fe917c73] (006/202) Accurately ripped
06 [e52d7d96] (006/203) Accurately ripped
07 [ea19676b] (006/202) Accurately ripped
08 [ffe71a58] (006/203) Accurately ripped
09 [379bef8c] (006/200) Accurately ripped
10 [bbda843b] (006/199) Accurately ripped
Offsetted by 6:
01 [37cf2feb] (038/201) Accurately ripped
02 [a993534a] (038/201) Accurately ripped
03 [12e99cd0] (038/203) Accurately ripped
04 [373460d0] (038/203) Accurately ripped
05 [1102d417] (038/202) Accurately ripped
06 [f827a8f2] (038/203) Accurately ripped
07 [0ce0ef7b] (038/202) Accurately ripped
08 [2a82a438] (038/203) Accurately ripped
09 [9df0d298] (037/200) Accurately ripped
10 [a86b0e13] (037/199) Accurately ripped

Track Peak [ CRC32 ] [W/O NULL] [ LOG ]
– 98,8 [603A3036] [8A4DFB1C] CRC32
01 98,8 [AA4CF354] [28A6ADC5]
02 98,8 [127E5D8A] [ECF6187E]
03 98,8 [08035963] [FDB781B8]
04 98,8 [F000ECA3] [0B888E6C]
05 98,8 [12E8EBEF] [309FB51B]
06 98,8 [9F08FF5A] [E75755FB]
07 98,8 [5E52613F] [86FDECBF]
08 98,8 [51CC74DF] [A22B7141]
09 98,8 [8363513E] [73A865DD]
10 98,8 [B981B327] [8CABCB44]

Lindsey Buckingham - Gift Of Screws (2008)

All thanks go to the original releaser

Fleetwood Mac in my Blog

Download Lindsey Buckingham - Gift Of Screws (2008):