Subcategories
Tags
Language
Tags

Linda Ronstadt - Don't Cry Now (1973) [MFSL, UDCD 768]

Posted By: v3122
Linda Ronstadt - Don't Cry Now (1973) [MFSL, UDCD 768]

Linda Ronstadt - Don't Cry Now (1973)
EAC | Flac(Image) + Cue + Log & MP3 CBR 320Kbps
2007 | Mobile Fidelity Sound Lab, UDCD 768 | ~ 211 or 87 Mb | Scans Included
Folk Rock / Country Rock

Don't Cry Now is Linda Ronstadt's Gold-certified fourth solo LP and the first of her studio releases for Asylum Records, following six albums recorded for and released on Capitol Records in 1974…

~ wiki
Linda Ronstadt - Don't Cry Now (1973) [MFSL, UDCD 768]


Linda Ronstadt - Don't Cry Now (1973):

Linda Ronstadt - Don't Cry Now (1973) [MFSL, UDCD 768]

Tracklist:

01. I Can Almost See It [3:52]
02. Love Has No Pride [4:13]
03. Silver Threads And Golden Needles [2:25]
04. Desperado [3:32]
05. Don't Cry Now [4:30]
06. Sail Away [3:09]
07. Colorado [4:20]
08. The Fast One [3:43]
09. Everybody Loves A Winner [3:20]
10. I Believe In You [2:52]

Exact Audio Copy V1.3 from 2. September 2016

EAC extraction logfile from 7. November 2016, 17:25

LINDA RONSTADT / Don't Cry Now (USA, MFSL, UDCD 768)

Used drive : ASUS DRW-24B3ST Adapter: 1 ID: 2

Read mode : Secure
Utilize accurate stream : Yes
Defeat audio cache : Yes
Make use of C2 pointers : No

Read offset correction : 6
Overread into Lead-In and Lead-Out : No
Fill up missing offset samples with silence : Yes
Delete leading and trailing silent blocks : No
Null samples used in CRC calculations : Yes
Used interface : Native Win32 interface for Win NT & 2000

Used output format : User Defined Encoder
Selected bitrate : 1024 kBit/s
Quality : High
Add ID3 tag : No
Command line compressor : C:\Program Files\EAC(v.1.3)\WV\wavpack.exe
Additional command line options : -h -hh -m %source%


TOC of the extracted CD

Track | Start | Length | Start sector | End sector
––––––––––––––––––––––––––––-
1 | 0:00.00 | 3:52.24 | 0 | 17423
2 | 3:52.24 | 4:12.47 | 17424 | 36370
3 | 8:04.71 | 2:25.03 | 36371 | 47248
4 | 10:29.74 | 3:31.50 | 47249 | 63123
5 | 14:01.49 | 4:29.57 | 63124 | 83355
6 | 18:31.31 | 3:08.68 | 83356 | 97523
7 | 21:40.24 | 4:19.61 | 97524 | 117009
8 | 26:00.10 | 3:42.64 | 117010 | 133723
9 | 29:42.74 | 3:20.36 | 133724 | 148759
10 | 33:03.35 | 2:51.59 | 148760 | 161643


Range status and errors

Selected range

Filename F:\LINDA RONSTADT - Don't Cry Now (1973) (US 2007 Mobile Fidelity Sound Lab • UDCD 768)\LINDA RONSTADT - Don't Cry Now (USA, MFSL, UDCD 768).wav

Peak level 100.0 %
Extraction speed 7.0 X
Range quality 100.0 %
Test CRC E82DB5E7
Copy CRC E82DB5E7
Copy OK

No errors occurred


AccurateRip summary

Track 1 accurately ripped (confidence 33) [E73E28FD] (AR v2)
Track 2 accurately ripped (confidence 33) [D1594984] (AR v2)
Track 3 accurately ripped (confidence 33) [2C802F9D] (AR v2)
Track 4 accurately ripped (confidence 33) [8CB0A290] (AR v2)
Track 5 accurately ripped (confidence 33) [B32828CF] (AR v2)
Track 6 accurately ripped (confidence 33) [D6887B1E] (AR v2)
Track 7 accurately ripped (confidence 33) [BE468677] (AR v2)
Track 8 accurately ripped (confidence 4) [C41F18C0] (AR v1)
Track 9 accurately ripped (confidence 33) [01516F10] (AR v2)
Track 10 accurately ripped (confidence 33) [EC183AEB] (AR v2)

All tracks accurately ripped

End of status report

==== Log checksum 471462C06653F2DCF8BEA5AF57C9AB6E793836A273E984FC10C8C782D4F40D07 ====

foobar2000 1.2.9 / Dynamic Range Meter 1.1.1
log date: 2016-11-09 11:38:59

––––––––––––––––––––––––––––––––––––––––
Analyzed: LINDA RONSTADT / Don't Cry Now (USA, MFSL, UDCD 768)
––––––––––––––––––––––––––––––––––––––––

DR Peak RMS Duration Track
––––––––––––––––––––––––––––––––––––––––
DR11 0.00 dB -13.99 dB 3:52 01-I Can Almost See It
DR11 0.00 dB -14.51 dB 4:13 02-Love Has No Pride
DR11 0.00 dB -12.93 dB 2:25 03-Silver Threads And Golden Needles
DR11 -0.08 dB -14.87 dB 3:32 04-Desperado
DR11 -0.15 dB -13.96 dB 4:30 05-Don't Cry Now
DR10 0.00 dB -14.76 dB 3:09 06-Sail Away
DR11 0.00 dB -15.43 dB 4:20 07-Colorado
DR11 0.00 dB -14.02 dB 3:43 08-The Fast One
DR10 0.00 dB -13.75 dB 3:20 09-Everybody Loves A Winner
DR10 0.00 dB -14.31 dB 2:52 10-I Believe In You
––––––––––––––––––––––––––––––––––––––––

Number of tracks: 10
Official DR value: DR11

Samplerate: 44100 Hz
Channels: 2
Bits per sample: 16
Bitrate: 789 kbps
Codec: FLAC

[CUETools log; Date: 09.11.2016 11:39:09; Version: 2.1.4]
[CTDB TOCID: SZoZdppgr2s211j_fYn704fNnRY-] found.
Track | CTDB Status
1 | (20/20) Accurately ripped
2 | (20/20) Accurately ripped
3 | (20/20) Accurately ripped
4 | (20/20) Accurately ripped
5 | (20/20) Accurately ripped
6 | (20/20) Accurately ripped
7 | (20/20) Accurately ripped
8 | (20/20) Accurately ripped
9 | (20/20) Accurately ripped
10 | (20/20) Accurately ripped
[AccurateRip ID: 000dd3ca-006e6c36-7b086b0a] found.
Track [ CRC | V2 ] Status
01 [cfb1273b|e73e28fd] (32+33/65) Accurately ripped
02 [135902bc|d1594984] (32+33/65) Accurately ripped
03 [aaef10ce|2c802f9d] (32+33/65) Accurately ripped
04 [cb0bf3e0|8cb0a290] (33+33/66) Accurately ripped
05 [48e5fddf|b32828cf] (32+33/65) Accurately ripped
06 [b24fecdd|d6887b1e] (32+33/65) Accurately ripped
07 [3ca5208c|be468677] (32+33/65) Accurately ripped
08 [c41f18c0|c63df4a3] (04+00/65) Accurately ripped
09 [be33bbe2|01516f10] (32+33/65) Accurately ripped
10 [5c67de38|ec183aeb] (32+33/65) Accurately ripped
Offsetted by -6:
01 [c206196d] (00/65) No match
02 [d16bcd80] (00/65) No match
03 [e1a3ea40] (00/65) No match
04 [1cc9f8d4] (00/66) No match
05 [980eaf4b] (00/65) No match
06 [1823f043] (00/65) No match
07 [8f49bfe8] (00/65) No match
08 [32296422] (29/65) Accurately ripped
09 [6e9051be] (00/65) No match
10 [36066e48] (00/65) No match
Offsetted by 6:
01 [dd5c3509] (00/65) No match (V2 was not tested)
02 [554637f8] (00/65) No match (V2 was not tested)
03 [743a375c] (00/65) No match (V2 was not tested)
04 [794deeec] (00/66) No match (V2 was not tested)
05 [f9bd4c73] (00/65) No match (V2 was not tested)
06 [4c7be977] (00/65) No match (V2 was not tested)
07 [ea008130] (00/65) No match (V2 was not tested)
08 [5614cd5e] (00/65) No match
09 [0dd72606] (00/65) No match (V2 was not tested)
10 [82c94e28] (00/65) No match (V2 was not tested)

Track Peak [ CRC32 ] [W/O NULL] [ LOG ]
– 100,0 [E82DB5E7] [627C72E1] CRC32
01 100,0 [2D1E144E] [1BB8253A]
02 100,0 [DE3F640E] [54594962]
03 100,0 [2D2F4202] [9943278D]
04 99,1 [294AF2CD] [D8687848]
05 98,2 [8C20102A] [FBBCBA78]
06 100,0 [2A35004A] [B6725070]
07 100,0 [02B0BDE8] [9F3F9E12]
08 100,0 [41CF5DD8] [58397588]
09 100,0 [7E0D222E] [03BCF7D4]
10 100,0 [D6BD714C] [E3B2FDCA]

Linda Ronstadt - Don't Cry Now (1973) [MFSL, UDCD 768]

All thanks go to the original releaser

Linda Ronstadt in my Blog

Download Linda Ronstadt - Don't Cry Now (1973):