Subcategories
Tags
Language
Tags

Leonardo Garcia Alarcon, Millenium Orchestra, Choeur de Chambre de Namur - Lully: Dies Irae, De Profundis, Te Deum (2019)

Posted By: ArlegZ
Leonardo Garcia Alarcon, Millenium Orchestra, Choeur de Chambre de Namur - Lully: Dies Irae, De Profundis, Te Deum (2019)

Leonardo García Alarcón, Millenium Orchestra, Chœur de Chambre de Namur - Lully: Dies Irae, De Profundis, Te Deum (2019)
EAC | FLAC | Image (Cue & Log) ~ 503 Mb | Total time: 82:50 | Scans included
Classical | Label: Alpha Classics | # ALPHA444 | Recorded: 2018

Although Lully never held any post in the Chapelle du Roi, his influence on the development of the grand motet, so emblematic of the Grand Siècle, was of decisive importance. He wrote imposing motets celebrating the glory of God and the King for the great ceremonies at court. Of the many royal funerals, that of Queen Marie-Thérèse in 1683 was among the most grandiose. Lully’s Dies iræ and De profundis were sung there. But his most celebrated motet was undoubtedly his Te Deum, which rang out for the first time in 1677 and became the king’s favourite. In 1687 Lully directed it once again, but struck his foot violently with the heavy walking stick he used to beat time. The wound became infected and the gangrene gradually spread, causing the surintendant’s death on 22 March. Such was the tragic destiny of the man who was capable of conveying the most brilliant glory but also all the anguish of death in the same vein of grandeur.’*… That theatrical grandeur is the characteristic of this version recorded in the Chapelle Royale of the Château de Versailles. Lully is in the limelight again in 2019, on the occasion of the 350th anniversary of the Académie Royale de Musique (Paris Opéra), of which he was director from 1672 until his death. (*from an article by T. Leconte, CMBV)

Performer:
Chœur de Chambre de Namur
Millenium Orchestra
Leonardo García Alarcón, direction

Track List:
Dies Iræ, LWV.64/1
01. Dies iræ, dies illa
02. Tuba mirum spargens sonum
03. Mors stupebit et natura
04. Liber scriptus proferetur
05. Quid sum miser tunc dicturus
06. Rex tremendæ majestatis
07. Quærens me, sedisti lassus
08. Juste judex ultionis
09. Ingemisco tanquam reus
10. Confutatis maledictis
11. Oro supplex et acclinis
12. Lacrymosa dies illa
13. Pie Jesu Domine
De Profundis, LWV.62
14. De profundis clamavi ad te Domine
15. Quia apud te propitiatio est
16. Requiem æternam dona eis Domine
Te Deum, LWV.55
17. Te Deum laudamus
18. Tibi omnes Angeli
19. Pleni sunt cæli
20. Patrem immensæ majestatis
21. Tu Rex gloriæ, Christe
22. Tu ad dexteram Dei sedes
23. Te ergo quæsumus, tuis famulis subveni
24. Salvum fac populum tuum, Domine
25. Dignare, Domine, die isto
26. In te, Domine, speravi


Exact Audio Copy V1.2 from 12. August 2016

EAC extraction logfile from 2. September 2019, 19:03

Leonardo García Alarcón, Millenium Orchestra / Dies Iræ, De Profundis, Te Deum

Used drive : MATSHITADVD-RAM UJ8G6 Adapter: 1 ID: 0

Read mode : Secure
Utilize accurate stream : Yes
Defeat audio cache : Yes
Make use of C2 pointers : No

Read offset correction : 103
Overread into Lead-In and Lead-Out : No
Fill up missing offset samples with silence : Yes
Delete leading and trailing silent blocks : No
Null samples used in CRC calculations : Yes
Used interface : Native Win32 interface for Win NT & 2000

Used output format : User Defined Encoder
Selected bitrate : 768 kBit/s
Quality : High
Add ID3 tag : No
Command line compressor : C:\Program Files (x86)\Exact Audio Copy\Flac\flac.exe
Additional command line options : -6 -V -T "ARTIST=%artist%" -T "TITLE=%title%" -T "ALBUM=%albumtitle%" -T "DATE=%year%" -T "TRACKNUMBER=%tracknr%" -T "GENRE=%genre%" -T "COMMENT=%comment%" -T "BAND=%albuminterpret%" -T "ALBUMARTIST=%albuminterpret%" -T "COMPOSER=%composer%" %haslyrics%–tag-from-file=LYRICS="%lyricsfile%"%haslyrics% -T "DISCNUMBER=%cdnumber%" -T "TOTALDISCS=%totalcds%" -T "TOTALTRACKS=%numtracks%" %hascover%–picture="%coverfile%"%hascover% %source% -o %dest%


TOC of the extracted CD

Track | Start | Length | Start sector | End sector
––––––––––––––––––––––––––––-
1 | 0:00.00 | 1:07.24 | 0 | 5048
2 | 1:07.24 | 0:40.12 | 5049 | 8060
3 | 1:47.36 | 0:42.55 | 8061 | 11265
4 | 2:30.16 | 0:55.50 | 11266 | 15440
5 | 3:25.66 | 0:36.03 | 15441 | 18143
6 | 4:01.69 | 1:49.09 | 18144 | 26327
7 | 5:51.03 | 0:49.69 | 26328 | 30071
8 | 6:40.72 | 0:39.51 | 30072 | 33047
9 | 7:20.48 | 3:17.08 | 33048 | 47830
10 | 10:37.56 | 1:30.27 | 47831 | 54607
11 | 12:08.08 | 0:56.04 | 54608 | 58811
12 | 13:04.12 | 3:51.54 | 58812 | 76190
13 | 16:55.66 | 3:51.33 | 76191 | 93548
14 | 20:47.24 | 8:31.43 | 93549 | 131916
15 | 29:18.67 | 9:07.70 | 131917 | 173011
16 | 38:26.62 | 4:52.03 | 173012 | 194914
17 | 43:18.65 | 3:57.00 | 194915 | 212689
18 | 47:15.65 | 1:54.23 | 212690 | 221262
19 | 49:10.13 | 3:50.46 | 221263 | 238558
20 | 53:00.59 | 3:12.44 | 238559 | 253002
21 | 56:13.28 | 3:41.14 | 253003 | 269591
22 | 59:54.42 | 1:29.71 | 269592 | 276337
23 | 61:24.38 | 6:15.43 | 276338 | 304505
24 | 67:40.06 | 6:22.27 | 304506 | 333182
25 | 74:02.33 | 6:18.70 | 333183 | 361602
26 | 80:21.28 | 2:26.65 | 361603 | 372617


Range status and errors

Selected range

Filename C:\Users\Roy\Music\LULLY - Dies Iræ (2018) [Alarcón; Alpha Classics]\CD (FLAC + CUE)\Jean-Baptiste Lully - Dies Iræ, De Profundis, Te Deum.wav

Peak level 93.2 %
Extraction speed 4.6 X
Range quality 100.0 %
Copy CRC 2FBB5F29
Copy OK

No errors occurred


AccurateRip summary

Track 1 not present in database
Track 2 not present in database
Track 3 not present in database
Track 4 not present in database
Track 5 not present in database
Track 6 not present in database
Track 7 not present in database
Track 8 not present in database
Track 9 not present in database
Track 10 not present in database
Track 11 not present in database
Track 12 not present in database
Track 13 not present in database
Track 14 not present in database
Track 15 not present in database
Track 16 not present in database
Track 17 not present in database
Track 18 not present in database
Track 19 not present in database
Track 20 not present in database
Track 21 not present in database
Track 22 not present in database
Track 23 not present in database
Track 24 not present in database
Track 25 not present in database
Track 26 not present in database

None of the tracks are present in the AccurateRip database

End of status report

–– CUETools DB Plugin V2.1.6

[CTDB TOCID: .vEYX2FB_X5GR2p9KBBln4iz7cI-] found
Submit result: .vEYX2FB_X5GR2p9KBBln4iz7cI- has been confirmed
Track | CTDB Status
1 | (1/1) Accurately ripped
2 | (1/1) Accurately ripped
3 | (1/1) Accurately ripped
4 | (1/1) Accurately ripped
5 | (1/1) Accurately ripped
6 | (1/1) Accurately ripped
7 | (1/1) Accurately ripped
8 | (1/1) Accurately ripped
9 | (1/1) Accurately ripped
10 | (1/1) Accurately ripped
11 | (1/1) Accurately ripped
12 | (1/1) Accurately ripped
13 | (1/1) Accurately ripped
14 | (1/1) Accurately ripped
15 | (1/1) Accurately ripped
16 | (1/1) Accurately ripped
17 | (1/1) Accurately ripped
18 | (1/1) Accurately ripped
19 | (1/1) Accurately ripped
20 | (1/1) Accurately ripped
21 | (1/1) Accurately ripped
22 | (1/1) Accurately ripped
23 | (1/1) Accurately ripped
24 | (1/1) Accurately ripped
25 | (1/1) Accurately ripped
26 | (1/1) Accurately ripped


==== Log checksum CD1B23D230E070573ED0ECA48F4A9BB136FA290A5D3C90E245A21843BEC327DC ====

Leonardo Garcia Alarcon, Millenium Orchestra, Choeur de Chambre de Namur - Lully: Dies Irae, De Profundis, Te Deum (2019)

Thanks to the original releaser