Subcategories
Tags
Language
Tags

K.D. Lang - All You Can Eat (1995)

Posted By: BlondStyle
K.D. Lang - All You Can Eat (1995)

K.D. Lang - All You Can Eat (1995)
Pop/Rock, Alt-Country | EAC Rip | FLAC, Tracks+CUE+LOG+Scans (PNG) | 36:20 Min. | 277,39 Mb
Label: Warner Bros. Records (Germany) | Cat.# 9362-46034-2 | Released: 1995-10-10
K.D. Lang - All You Can Eat (1995)

k.d. lang followed through on the promise of her adult contemporary changeover Ingénue with All You Can Eat. A more experimental and realized record than its predecessor, there are more daring production touches on All You Can Eat it's clear that she has been listening to contemporary pop, not just torch songs. It isn't immediately accessible the production is low-key, the melodies are gentle and subtle (although her cutesy, tongue-in-cheek song titles suggest otherwise), and lang gives a nuanced, sophisticated performance. Though it lacks a standout song like the aching "Constant Craving," All You Can Eat has a more consistent set of songs and, given time, is a more rewarding listen.
~Review by Stephen Thomas Erlewine

K.D. Lang - All You Can Eat (1995)

K.D. Lang - All You Can Eat (1995)




Release of this album/CD: 1995, October, 10 [CD Warner Bros. Records (Germany), Cat.# 9362-46034-2 / UPC: 093624603429]
℗ & © 1995 Warner Bros. Records Inc. for the U.S. and WEA International Inc. for the world outside of the U.S.
Made in Germany by Warner Music Manufacturing Europe

Credits:

Arranged By [String Arrangmnents] – Ben Mink
Art Direction, Design – John Heiden, k.d. lang
Bass Guitar – David Piltch
Cello – John Friesen (tracks: 2 to 4, 6 to 8)
Co-producer – Marc Ramaer
Coordinator [Production Coordinator] – Lisa Longville
Drums – Randall Stoll
Electric Piano [Rhodes] – Teddy Borowiecki (tracks: 1, 2, 8, 9)
Engineer [2nd Engineer Mixing] – David Betancourt
Engineer [2nd Engineer Recording] – Jason Mauza
Guitar [Guitars] – Ben Mink
Keyboards [Additional] – Ben Mink (tracks: 3, 10), k.d. lang (tracks: 4, 5)
Loops – Ben Mink (tracks: 3 to 5, 9)
Management – Larry W. Wanagas
Organ – Teddy Borowiecki (tracks: 3, 4, 8)
Percussion – Graham Boyle
Photography By – Guzman
Piano – Teddy Borowiecki (tracks: 2, 6, 7, 9)
Producer – Ben Mink, k.d. lang
Recorded By [Additonal Recording] – Ben Mink, k.d. lang
Recorded By, Mixed By – Marc Ramaer
Violin, Viola – Ben Mink (tracks: 2 to 9)
Written-By – Ben Mink, k.d. lang


Tracklist:

1. If I Were You (04:00)
02. Maybe (04:11)
03. You’re OK (03:04)
04. Sexuality (03:25)
05. Get Some (03:39)
06. Acquiesce (03:32)
07. This (04:04)
08. World of Love (03:46)
09. Infinite and Unforseen (02:58)
10. I Want It All (03:40)

Exact Audio Copy V1.3 from 2. September 2016

EAC extraction logfile from 19. December 2017, 13:32

K. D. Lang / All You Can Eat

Used drive : ATAPI iHAS124 F Adapter: 1 ID: 0

Read mode : Secure
Utilize accurate stream : Yes
Defeat audio cache : Yes
Make use of C2 pointers : No

Read offset correction : 6
Overread into Lead-In and Lead-Out : No
Fill up missing offset samples with silence : Yes
Delete leading and trailing silent blocks : No
Null samples used in CRC calculations : Yes
Used interface : Native Win32 interface for Win NT & 2000
Gap handling : Appended to previous track

Used output format : User Defined Encoder
Selected bitrate : 1024 kBit/s
Quality : High
Add ID3 tag : No
Command line compressor : C:\Program Files (x86)\Exact Audio Copy\Flac\flac.exe
Additional command line options : -8 -V -T "ARTIST=%artist%" -T "TITLE=%title%" -T "ALBUM=%albumtitle%" -T "DATE=%year%" -T "TRACKNUMBER=%tracknr%" -T "TOTALTRACKS=%numtracks%" -T "GENRE=%genre%" -T "ALBUMARTIST=%albumartist%" -T "ALBUM ARTIST=%albumartist%" -T "COMMENT=EAC Secure Mode, Test & Copy, AccurateRip, FLAC -8" %source%


TOC of the extracted CD

Track | Start | Length | Start sector | End sector
––––––––––––––––––––––––––––-
1 | 0:00.00 | 3:59.62 | 0 | 17986
2 | 3:59.62 | 4:11.33 | 17987 | 36844
3 | 8:11.20 | 3:03.60 | 36845 | 50629
4 | 11:15.05 | 3:24.72 | 50630 | 66001
5 | 14:40.02 | 3:39.03 | 66002 | 82429
6 | 18:19.05 | 3:32.35 | 82430 | 98364
7 | 21:51.40 | 4:03.47 | 98365 | 116636
8 | 25:55.12 | 3:46.30 | 116637 | 133616
9 | 29:41.42 | 2:58.33 | 133617 | 146999
10 | 32:40.00 | 3:39.45 | 147000 | 163469


Track 1

Filename C:\Users\biafr_000\Music\K. D. Lang - All You Can Eat (1995) [FLAC]\01 - If I Were You.wav

Pre-gap length 0:00:02.00

Peak level 97.7 %
Extraction speed 5.1 X
Track quality 100.0 %
Test CRC 84A29E85
Copy CRC 84A29E85
Accurately ripped (confidence 100) [632AAE75] (AR v2)
Copy OK

Track 2

Filename C:\Users\biafr_000\Music\K. D. Lang - All You Can Eat (1995) [FLAC]\02 - Maybe.wav

Pre-gap length 0:00:00.30

Peak level 97.7 %
Extraction speed 5.7 X
Track quality 100.0 %
Test CRC 248DF0FC
Copy CRC 248DF0FC
Accurately ripped (confidence 100) [4013744E] (AR v2)
Copy OK

Track 3

Filename C:\Users\biafr_000\Music\K. D. Lang - All You Can Eat (1995) [FLAC]\03 - You're OK.wav

Peak level 97.7 %
Extraction speed 5.8 X
Track quality 100.0 %
Test CRC F8B7D8C4
Copy CRC F8B7D8C4
Accurately ripped (confidence 101) [96872286] (AR v2)
Copy OK

Track 4

Filename C:\Users\biafr_000\Music\K. D. Lang - All You Can Eat (1995) [FLAC]\04 - Sexuality.wav

Peak level 97.7 %
Extraction speed 6.3 X
Track quality 100.0 %
Test CRC 39DB612D
Copy CRC 39DB612D
Accurately ripped (confidence 101) [C89D5285] (AR v2)
Copy OK

Track 5

Filename C:\Users\biafr_000\Music\K. D. Lang - All You Can Eat (1995) [FLAC]\05 - Get Some.wav

Peak level 97.7 %
Extraction speed 6.7 X
Track quality 100.0 %
Test CRC B2AA44FB
Copy CRC B2AA44FB
Accurately ripped (confidence 100) [33720ACE] (AR v2)
Copy OK

Track 6

Filename C:\Users\biafr_000\Music\K. D. Lang - All You Can Eat (1995) [FLAC]\06 - Acquiesce.wav

Pre-gap length 0:00:01.73

Peak level 97.7 %
Extraction speed 5.7 X
Track quality 99.9 %
Test CRC 8A565033
Copy CRC 8A565033
Accurately ripped (confidence 101) [C30D2ECA] (AR v2)
Copy OK

Track 7

Filename C:\Users\biafr_000\Music\K. D. Lang - All You Can Eat (1995) [FLAC]\07 - This.wav

Pre-gap length 0:00:01.40

Peak level 97.7 %
Extraction speed 7.4 X
Track quality 100.0 %
Test CRC FA8A7FBA
Copy CRC FA8A7FBA
Accurately ripped (confidence 99) [919F546D] (AR v2)
Copy OK

Track 8

Filename C:\Users\biafr_000\Music\K. D. Lang - All You Can Eat (1995) [FLAC]\08 - World Of Love.wav

Pre-gap length 0:00:01.27

Peak level 97.7 %
Extraction speed 6.2 X
Track quality 99.9 %
Test CRC 7353A490
Copy CRC 7353A490
Accurately ripped (confidence 101) [E920661B] (AR v2)
Copy OK

Track 9

Filename C:\Users\biafr_000\Music\K. D. Lang - All You Can Eat (1995) [FLAC]\09 - Infinite And Unforeseen.wav

Pre-gap length 0:00:01.62

Peak level 97.7 %
Extraction speed 7.6 X
Track quality 100.0 %
Test CRC E7942DB2
Copy CRC E7942DB2
Accurately ripped (confidence 101) [C93B2402] (AR v2)
Copy OK

Track 10

Filename C:\Users\biafr_000\Music\K. D. Lang - All You Can Eat (1995) [FLAC]\10 - I Want It All.wav

Pre-gap length 0:00:01.33

Peak level 97.7 %
Extraction speed 8.1 X
Track quality 100.0 %
Test CRC F5A7F410
Copy CRC F5A7F410
Accurately ripped (confidence 101) [CC1B344F] (AR v2)
Copy OK


All tracks accurately ripped

No errors occurred

End of status report

–– CUETools DB Plugin V2.1.6

[CTDB TOCID: _68rIsLu3Gcw6vvZ0AGBFhB9pcI-] found
Submit result: _68rIsLu3Gcw6vvZ0AGBFhB9pcI- has been confirmed
Track | CTDB Status
1 | (144/149) Accurately ripped
2 | (149/149) Accurately ripped
3 | (149/149) Accurately ripped
4 | (149/149) Accurately ripped
5 | (147/149) Accurately ripped
6 | (145/149) Accurately ripped
7 | (147/149) Accurately ripped
8 | (147/149) Accurately ripped
9 | (147/149) Accurately ripped
10 | (148/149) Accurately ripped


==== Log checksum 97D8EFB6C9878C01187EE4C6BF6D531A8B23DE8E2D6788B7937AC3F38CD489AA ====

––––––––––––––––––––––––––––––––––––––––
Analyzed: K.D. Lang / All You Can Eat
––––––––––––––––––––––––––––––––––––––––

DR Peak RMS Duration Track
––––––––––––––––––––––––––––––––––––––––
DR13 -0.20 dB -15.36 dB 4:00 01-If I Were You
DR11 -0.20 dB -13.35 dB 4:11 02-Maybe
DR12 -0.20 dB -14.01 dB 3:04 03-You're OK
DR12 -0.20 dB -14.78 dB 3:25 04-Sexuality
DR11 -0.20 dB -14.30 dB 3:39 05-Get Some
DR12 -0.20 dB -15.03 dB 3:32 06-Acquiesce
DR12 -0.20 dB -14.96 dB 4:04 07-This
DR12 -0.20 dB -13.97 dB 3:46 08-World Of Love
DR15 -0.20 dB -17.52 dB 2:58 09-Infinite And Unforeseen
DR11 -0.20 dB -13.51 dB 3:40 10-I Want It All
––––––––––––––––––––––––––––––––––––––––

Number of tracks: 10
Official DR value: DR12

Samplerate: 44100 Hz
Channels: 2
Bits per sample: 16
Bitrate: 855 kbps
Codec: FLAC
================================================================================

All thanks to original releaser

See also:
K.D. Lang - Ingénue (1992)
K.D. Lang And The Siss Boom Bang - Sing It Loud (2011)

password: BlondStyle