Subcategories

Josephine Foster - Graphic As A Star (2009)

Posted By: Designol
Josephine Foster - Graphic As A Star (2009)

Josephine Foster - Graphic As A Star (2009)
EAC | FLAC | Tracks (Cue&Log) ~ 209 Mb | Mp3 (CBR320) ~ 106 Mb | Scans included
Singer/Songwriter, Indie Folk, Psychedelic | Label: Fire | # FIRECD136 | 00:44:21

Josephine Foster album Graphic as a Star is based upon the poems of the 19th century American poet Emily Dickenson. Josephine lays stairsteppy melodies beneath a collection of Dickenson gems and sings them with a burnished soulfullness like the purple sunsets so often described in the poems. Massachusetts mountains pearled spiderwebs and folk heroe William Tell are all present in this unforgetable meeting of Dickensons posey and Fosters music making a natural and inevitable whole. Ms. Foster is a Colorado-born artist whose songwriting draws from far corners of the musical spectrum to form a truly singular body of work. While sometimes compared to such singers as Shirley Collins or Tiny Tim, it is difficult to pigeonhole her arresting vocal style. She says her craft is strongly shaped by "Tin Pan Alley on my maternal side, rock and roll on my paternal side, Western folk music by birth, art-song and classical music via my adolescent passions".

When Josephine Foster released A Wolf in Sheep’s Clothing in 2006, she provocatively recorded the lieder of composers like Schumman, Brahms, and Schubert in a unique framework. She sang them in German and played acoustic guitar, piano, and harmonica with improvising electric guitarist Brian Goodman accompanying her for a contemporary feel. Though her music exists in a unique space, she echoes such risk-taking classic folk performers such as Shirley Collins. On Graphic as a Star – her debut album for Fire Records – she has written music to the poems of Emily Dickinson, and the fit is seamless. She conceived the 26-song cycle while living in a remote region of Spain and had brought very few books with her. Dickinson’s poems provided comfort. In her liner notes she claims these songs came together in a matter of weeks. Musically, this is more sparse than anything she’s ever recorded – accompanying herself only on an acoustic guitar, sometimes with a primitive-sounding harmonica added. She also she sings a cappella (“Wild Nights - Wild Nights!”) or with only the sounds of chirping birds in the background (“What Shall I Do - It Whimpers So -”). While all of Foster’s work is provocative, this proves the warmest, loveliest, and most beautifully articulated recording in her catalog. These poems (which were also written in solitude; Dickinson was a self-imposed shut-in) easily lend themselves to Foster’s song forms, due to the poet’s keen sense of time, rhythm, and space. Dickinson's writing is often wonderfully elliptical in image and meaning; Foster underscores this here: there are no choruses. These songs are small but evoke the vast emptiness surrounding them. They don’t feel melancholy, even when they are, such as in “My Life Had Stood - A Loaded Gun.“ Instead they are evocative of an America at once imagined and longed for – and this sense of homesickness is evident in the reedy beauty of Foster’s voice – which is more controlled and tempered than ever before; she seems to have found the exact pitch and timbre she’s sought since the beginning. While the entire cycle is gorgeous and the tunes nearly inseparable from one another, a couple of tracks lend themselves to singling out: the lilting early American folk melody in “Tho' My Destiny Be Fustian -“ and the languid, bluesy stroll of “I Could Bring You Jewels - Had I a Mind To -.” Graphic as a Star is exquisite.

Review by Thom Jurek, Allmusic.com

Josephine Foster - Graphic As A Star (2009)



Tracklist:

01. Trust In The Unexpected (01:58)
02. How Happy Is The Little Stone (01:02)
03. She Sweeps With Many-Colored Brooms (02:32)
04. Ah, Teneriffe! (01:16)
05. Who Is The East? (00:39)
06. They Called Me To The Window (01:47)
07. This Is The Land The Sunset Washes (00:56)
08. Like Mighty Foot Lights Burned The Red (01:10)
09. Exultation Is The Going (00:49)
10. In Falling Timbers Buried (02:39)
11. With Thee In The Desert (00:31)
12. I See Thee Better In The Dark (02:11)
13. Your Thoughts Don’t Have Words Every Day (00:54)
14. My Life Had Stood A Loaded Gun (04:51)
15. Eden Is That Old-Fashioned House (01:01)
16. Beauty Crowds Me Till I Die (00:37)
17. I Could Bring You Jewels Had I A Mind To (02:14)
18. Wild Nights - Wild Nights! (01:56)
19. Only A Shrine, But Mine (02:29)
20. Tho’ My Destiny Be Fustian (01:30)
21. What Shall I Do It Whimpers So (01:51)
22. Heart! We Will Forget Him! (01:22)
23. Strong Draughts Of Their Refreshing Minds (01:03)
24. Tell As A Marksman Were Forgotten (02:54)
25. The Spider Holds A Silver Ball (02:44)
26. Whoever Disenchants (01:13)


Exact Audio Copy V0.99 prebeta 4 from 23. January 2008

EAC extraction logfile from 13. March 2010, 18:05

Josephine Foster / Graphic As A Star

Used drive : MATSHITADVD-RAM UJ-860S Adapter: 0 ID: 0

Read mode : Secure
Utilize accurate stream : Yes
Defeat audio cache : Yes
Make use of C2 pointers : No

Read offset correction : 102
Overread into Lead-In and Lead-Out : No
Fill up missing offset samples with silence : Yes
Delete leading and trailing silent blocks : No
Null samples used in CRC calculations : Yes
Used interface : Installed external ASPI interface
Gap handling : Appended to previous track

Used output format : User Defined Encoder
Selected bitrate : 320 kBit/s
Quality : High
Add ID3 tag : No
Command line compressor : C:\Program Files\FLAC\flac.exe
Additional command line options : -8 -V -T "ARTIST=%a" -T"TITLE=%t" -T"ALBUM=%g" -T"DATE=%y" -T"TRACKNUMBER=%n" -T"GENRE=%m" -T"COMMENT=EAC FLAC -8" %s


TOC of the extracted CD

Track | Start | Length | Start sector | End sector
––––––––––––––––––––––––––––-
1 | 0:00.00 | 1:58.31 | 0 | 8880
2 | 1:58.31 | 1:02.55 | 8881 | 13585
3 | 3:01.11 | 2:32.11 | 13586 | 24996
4 | 5:33.22 | 1:16.62 | 24997 | 30758
5 | 6:50.09 | 0:39.36 | 30759 | 33719
6 | 7:29.45 | 1:47.33 | 33720 | 41777
7 | 9:17.03 | 0:56.64 | 41778 | 46041
8 | 10:13.67 | 1:10.17 | 46042 | 51308
9 | 11:24.09 | 0:48.70 | 51309 | 54978
10 | 12:13.04 | 2:39.05 | 54979 | 66908
11 | 14:52.09 | 0:31.32 | 66909 | 69265
12 | 15:23.41 | 2:11.35 | 69266 | 79125
13 | 17:35.01 | 0:54.54 | 79126 | 83229
14 | 18:29.55 | 4:51.66 | 83230 | 105120
15 | 23:21.46 | 1:01.09 | 105121 | 109704
16 | 24:22.55 | 0:36.74 | 109705 | 112478
17 | 24:59.54 | 2:14.67 | 112479 | 122595
18 | 27:14.46 | 1:56.32 | 122596 | 131327
19 | 29:11.03 | 2:29.04 | 131328 | 142506
20 | 31:40.07 | 1:30.38 | 142507 | 149294
21 | 33:10.45 | 1:51.05 | 149295 | 157624
22 | 35:01.50 | 1:22.38 | 157625 | 163812
23 | 36:24.13 | 1:03.22 | 163813 | 168559
24 | 37:27.35 | 2:54.00 | 168560 | 181609
25 | 40:21.35 | 2:44.14 | 181610 | 193923
26 | 43:05.49 | 1:13.53 | 193924 | 199451


Track 1

Filename G:\Musak 2\Josephine Foster\Graphic As A Star (2009)\01 - Trust In The Unexpected.wav

Pre-gap length 0:00:02.00

Peak level 96.7 %
Track quality 100.0 %
Test CRC 7DCBD015
Copy CRC 7DCBD015
Track not present in AccurateRip database
Copy OK

Track 2

Filename G:\Musak 2\Josephine Foster\Graphic As A Star (2009)\02 - How Happy Is The Little Stone.wav

Pre-gap length 0:00:02.00

Peak level 96.6 %
Track quality 100.0 %
Test CRC 11D065E1
Copy CRC 11D065E1
Track not present in AccurateRip database
Copy OK

Track 3

Filename G:\Musak 2\Josephine Foster\Graphic As A Star (2009)\03 - She Sweeps With Many-Colored Brooms.wav

Pre-gap length 0:00:02.00

Peak level 97.3 %
Track quality 100.0 %
Test CRC E375F67D
Copy CRC E375F67D
Track not present in AccurateRip database
Copy OK

Track 4

Filename G:\Musak 2\Josephine Foster\Graphic As A Star (2009)\04 - Ah, Teneriffe!.wav

Pre-gap length 0:00:02.00

Peak level 78.4 %
Track quality 100.0 %
Test CRC 3B92574F
Copy CRC 3B92574F
Track not present in AccurateRip database
Copy OK

Track 5

Filename G:\Musak 2\Josephine Foster\Graphic As A Star (2009)\05 - Who Is The East .wav

Pre-gap length 0:00:02.00

Peak level 78.4 %
Track quality 100.0 %
Test CRC 98C6011E
Copy CRC 98C6011E
Track not present in AccurateRip database
Copy OK

Track 6

Filename G:\Musak 2\Josephine Foster\Graphic As A Star (2009)\06 - They Called Me To The Window.wav

Pre-gap length 0:00:02.00

Peak level 81.3 %
Track quality 100.0 %
Test CRC 83DCAD22
Copy CRC 83DCAD22
Track not present in AccurateRip database
Copy OK

Track 7

Filename G:\Musak 2\Josephine Foster\Graphic As A Star (2009)\07 - This Is The Land The Sunset Washes.wav

Pre-gap length 0:00:02.00

Peak level 96.5 %
Track quality 100.0 %
Test CRC 3A42C599
Copy CRC 3A42C599
Track not present in AccurateRip database
Copy OK

Track 8

Filename G:\Musak 2\Josephine Foster\Graphic As A Star (2009)\08 - Like Mighty Foot Lights Burned The Red.wav

Pre-gap length 0:00:02.00

Peak level 78.4 %
Track quality 100.0 %
Test CRC C487D356
Copy CRC C487D356
Track not present in AccurateRip database
Copy OK

Track 9

Filename G:\Musak 2\Josephine Foster\Graphic As A Star (2009)\09 - Exultation Is The Going.wav

Pre-gap length 0:00:02.00

Peak level 83.9 %
Track quality 100.0 %
Test CRC 703F8CA8
Copy CRC 703F8CA8
Track not present in AccurateRip database
Copy OK

Track 10

Filename G:\Musak 2\Josephine Foster\Graphic As A Star (2009)\10 - In Falling Timbers Buried.wav

Pre-gap length 0:00:02.00

Peak level 96.7 %
Track quality 99.9 %
Test CRC B42CD4C4
Copy CRC B42CD4C4
Track not present in AccurateRip database
Copy OK

Track 11

Filename G:\Musak 2\Josephine Foster\Graphic As A Star (2009)\11 - With Thee In The Desert.wav

Pre-gap length 0:00:02.00

Peak level 68.2 %
Track quality 100.0 %
Test CRC 79FA721A
Copy CRC 79FA721A
Track not present in AccurateRip database
Copy OK

Track 12

Filename G:\Musak 2\Josephine Foster\Graphic As A Star (2009)\12 - I See Thee Better In The Dark.wav

Pre-gap length 0:00:02.00

Peak level 96.8 %
Track quality 100.0 %
Test CRC 32CC7EA5
Copy CRC 32CC7EA5
Track not present in AccurateRip database
Copy OK

Track 13

Filename G:\Musak 2\Josephine Foster\Graphic As A Star (2009)\13 - Your Thoughts Don’t Have Words Every Day.wav

Pre-gap length 0:00:02.00

Peak level 67.5 %
Track quality 100.0 %
Test CRC 20242BCC
Copy CRC 20242BCC
Track not present in AccurateRip database
Copy OK

Track 14

Filename G:\Musak 2\Josephine Foster\Graphic As A Star (2009)\14 - My Life Had Stood A Loaded Gun.wav

Pre-gap length 0:00:02.00

Peak level 97.7 %
Track quality 99.9 %
Test CRC 5044DC16
Copy CRC 5044DC16
Track not present in AccurateRip database
Copy OK

Track 15

Filename G:\Musak 2\Josephine Foster\Graphic As A Star (2009)\15 - Eden Is That Old-Fashioned House.wav

Pre-gap length 0:00:02.00

Peak level 78.4 %
Track quality 99.8 %
Test CRC 435C4360
Copy CRC 435C4360
Track not present in AccurateRip database
Copy OK

Track 16

Filename G:\Musak 2\Josephine Foster\Graphic As A Star (2009)\16 - Beauty Crowds Me Till I Die.wav

Pre-gap length 0:00:02.00

Peak level 78.2 %
Track quality 100.0 %
Test CRC FBCDAE39
Copy CRC FBCDAE39
Track not present in AccurateRip database
Copy OK

Track 17

Filename G:\Musak 2\Josephine Foster\Graphic As A Star (2009)\17 - I Could Bring You Jewels Had I A Mind To.wav

Pre-gap length 0:00:02.00

Peak level 96.6 %
Track quality 100.0 %
Test CRC 4AC636DA
Copy CRC 4AC636DA
Track not present in AccurateRip database
Copy OK

Track 18

Filename G:\Musak 2\Josephine Foster\Graphic As A Star (2009)\18 - Wild Nights - Wild Nights!.wav

Pre-gap length 0:00:02.00

Peak level 96.6 %
Track quality 100.0 %
Test CRC FF3A00BC
Copy CRC FF3A00BC
Track not present in AccurateRip database
Copy OK

Track 19

Filename G:\Musak 2\Josephine Foster\Graphic As A Star (2009)\19 - Only A Shrine, But Mine.wav

Pre-gap length 0:00:02.00

Peak level 96.7 %
Track quality 100.0 %
Test CRC B9AD8B65
Copy CRC B9AD8B65
Track not present in AccurateRip database
Copy OK

Track 20

Filename G:\Musak 2\Josephine Foster\Graphic As A Star (2009)\20 - Tho’ My Destiny Be Fustian.wav

Pre-gap length 0:00:02.00

Peak level 96.6 %
Track quality 100.0 %
Test CRC F61A3557
Copy CRC F61A3557
Track not present in AccurateRip database
Copy OK

Track 21

Filename G:\Musak 2\Josephine Foster\Graphic As A Star (2009)\21 - What Shall I Do It Whimpers So.wav

Pre-gap length 0:00:02.00

Peak level 77.3 %
Track quality 100.0 %
Test CRC F3BA9AF8
Copy CRC F3BA9AF8
Track not present in AccurateRip database
Copy OK

Track 22

Filename G:\Musak 2\Josephine Foster\Graphic As A Star (2009)\22 - Heart! We Will Forget Him!.wav

Pre-gap length 0:00:02.00

Peak level 96.7 %
Track quality 100.0 %
Test CRC 88CDF37D
Copy CRC 88CDF37D
Track not present in AccurateRip database
Copy OK

Track 23

Filename G:\Musak 2\Josephine Foster\Graphic As A Star (2009)\23 - Strong Draughts Of Their Refreshing Minds.wav

Pre-gap length 0:00:02.00

Peak level 78.5 %
Track quality 100.0 %
Test CRC 2B449380
Copy CRC 2B449380
Track not present in AccurateRip database
Copy OK

Track 24

Filename G:\Musak 2\Josephine Foster\Graphic As A Star (2009)\24 - Tell As A Marksman Were Forgotten.wav

Pre-gap length 0:00:02.00

Peak level 97.3 %
Track quality 99.9 %
Test CRC A951384B
Copy CRC A951384B
Track not present in AccurateRip database
Copy OK

Track 25

Filename G:\Musak 2\Josephine Foster\Graphic As A Star (2009)\25 - The Spider Holds A Silver Ball.wav

Pre-gap length 0:00:02.00

Peak level 97.0 %
Track quality 100.0 %
Test CRC 6B6E223F
Copy CRC 6B6E223F
Track not present in AccurateRip database
Copy OK

Track 26

Filename G:\Musak 2\Josephine Foster\Graphic As A Star (2009)\26 - Whoever Disenchants.wav

Pre-gap length 0:00:02.00

Peak level 78.4 %
Track quality 99.8 %
Test CRC 4627D508
Copy CRC 4627D508
Track not present in AccurateRip database
Copy OK


None of the tracks are present in the AccurateRip database

No errors occurred

End of status report

[CUETools log; Date: 22.09.2017 0:14:37; Version: 2.1.4]
[CTDB TOCID: e9b3tTBG9TyxLFbm9JlGHVy5iOI-] found.
Track | CTDB Status
1 | (3/3) Accurately ripped
2 | (3/3) Accurately ripped
3 | (3/3) Accurately ripped
4 | (3/3) Accurately ripped
5 | (3/3) Accurately ripped
6 | (3/3) Accurately ripped
7 | (3/3) Accurately ripped
8 | (3/3) Accurately ripped
9 | (3/3) Accurately ripped
10 | (3/3) Accurately ripped
11 | (3/3) Accurately ripped
12 | (3/3) Accurately ripped
13 | (3/3) Accurately ripped
14 | (3/3) Accurately ripped
15 | (3/3) Accurately ripped
16 | (3/3) Accurately ripped
17 | (3/3) Accurately ripped
18 | (3/3) Accurately ripped
19 | (3/3) Accurately ripped
20 | (3/3) Accurately ripped
21 | (3/3) Accurately ripped
22 | (3/3) Accurately ripped
23 | (3/3) Accurately ripped
24 | (3/3) Accurately ripped
25 | (3/3) Accurately ripped
26 | (3/3) Accurately ripped
[AccurateRip ID: 0026cc05-02de5fb6-4e0a631a] found.
Track [ CRC | V2 ] Status
01 [1221d672|4116f53e] (1+0/3) Accurately ripped
02 [8e342885|cd2b6f0d] (1+0/2) Accurately ripped
03 [26adb845|f6a06aa2] (1+0/2) Accurately ripped
04 [9f9097c1|775525b0] (1+0/2) Accurately ripped
05 [d5c8e7a2|36ce62dd] (1+0/2) Accurately ripped
06 [b402711b|ce4dab4d] (1+0/3) Accurately ripped
07 [3bfe0e01|3b220b14] (1+0/2) Accurately ripped
08 [4822121b|a606ae43] (1+0/3) Accurately ripped
09 [8018ee50|9043d79d] (1+0/2) Accurately ripped
10 [3d68a88f|43885f8d] (1+0/2) Accurately ripped
11 [9880c767|c02a421a] (1+0/2) Accurately ripped
12 [ceba76e6|76dddf8b] (1+0/2) Accurately ripped
13 [0129507b|0868d9d5] (1+0/2) Accurately ripped
14 [22df0ae0|9c753bef] (1+0/2) Accurately ripped
15 [bd18ae5a|b0eb4ca8] (1+0/2) Accurately ripped
16 [057d17a4|68132321] (1+0/2) Accurately ripped
17 [b3606a2a|d74f7e6b] (1+0/2) Accurately ripped
18 [da36d40e|bc3dea8c] (1+0/2) Accurately ripped
19 [c3a449aa|784b23db] (1+0/2) Accurately ripped
20 [ee417c3d|3f9ea89f] (1+0/2) Accurately ripped
21 [5f4f8d3f|f4f40509] (1+0/2) Accurately ripped
22 [6e582abc|419bb9bc] (1+0/2) Accurately ripped
23 [1ec32723|66c41c6d] (1+0/2) Accurately ripped
24 [010513aa|d57642e8] (1+0/2) Accurately ripped
25 [38c678eb|6acc07c2] (1+0/2) Accurately ripped
26 [ea02a5d6|5ea88b40] (1+0/2) Accurately ripped
Offsetted by 68:
01 [efe3e98c] (1/3) Accurately ripped
02 [aa909c11] (0/2) No match
03 [655f15d9] (0/2) No match
04 [4fe6ab25] (0/2) No match
05 [8f9e0e7a] (0/2) No match
06 [195be587] (1/3) Accurately ripped
07 [26efdbad] (0/2) No match
08 [7aa1afbb] (1/3) Accurately ripped
09 [de43d5d0] (0/2) No match
10 [1ec8bc8f] (0/2) No match
11 [89a0c117] (0/2) No match
12 [12c3fa4e] (0/2) No match
13 [1243eaaf] (0/2) No match
14 [acfc1aa4] (0/2) No match
15 [6e3a1092] (0/2) No match
16 [8a150a18] (0/2) No match
17 [663a0a7a] (0/2) No match
18 [d8f003a6] (0/2) No match
19 [fa754572] (0/2) No match
20 [62184389] (0/2) No match
21 [ac442ce7] (0/2) No match
22 [49c53ffc] (0/2) No match
23 [53ead443] (0/2) No match
24 [9225abba] (0/2) No match
25 [38443777] (0/2) No match
26 [7ea0c212] (0/2) No match

Track Peak [ CRC32 ] [W/O NULL] [ LOG ]
– 97,7 [D30E4F6E] [4D095CE4]
01 96,7 [7DCBD015] [BA51E615] CRC32
02 96,6 [11D065E1] [104BA45E] CRC32
03 97,3 [E375F67D] [9A4CD5CA] CRC32
04 78,4 [3B92574F] [33788A61] CRC32
05 78,4 [98C6011E] [12BE962B] CRC32
06 81,3 [83DCAD22] [1E0358B0] CRC32
07 96,5 [3A42C599] [209A624E] CRC32
08 78,4 [C487D356] [D7445569] CRC32
09 83,9 [703F8CA8] [E089A8DC] CRC32
10 96,7 [B42CD4C4] [466F8E3F] CRC32
11 68,2 [79FA721A] [7CDE0AE9] CRC32
12 96,8 [32CC7EA5] [536586AC] CRC32
13 67,5 [20242BCC] [9E264CDD] CRC32
14 97,7 [5044DC16] [1520ABC3] CRC32
15 78,4 [435C4360] [BA80DD79] CRC32
16 78,2 [FBCDAE39] [327A7ECF] CRC32
17 96,6 [4AC636DA] [2A25BFC9] CRC32
18 96,6 [FF3A00BC] [90D535F9] CRC32
19 96,7 [B9AD8B65] [272805C4] CRC32
20 96,6 [F61A3557] [AB270757] CRC32
21 77,3 [F3BA9AF8] [7ECA642B] CRC32
22 96,7 [88CDF37D] [A3B900B8] CRC32
23 78,5 [2B449380] [268188AE] CRC32
24 97,3 [A951384B] [3290628D] CRC32
25 97,0 [6B6E223F] [23EF05B2] CRC32
26 78,4 [4627D508] [ECB49A45] CRC32

foobar2000 1.2 / Dynamic Range Meter 1.1.1
log date: 2013-03-26 21:04:37

––––––––––––––––––––––––––––––––––––––––
Analyzed: Josephine Foster / Graphic As A Star
––––––––––––––––––––––––––––––––––––––––

DR Peak RMS Duration Track
––––––––––––––––––––––––––––––––––––––––
DR10 -0.29 dB -12.71 dB 1:58 01-Trust In The Unexpected
DR10 -0.29 dB -15.07 dB 1:03 02-How Happy Is The Little Stone
DR10 -0.24 dB -12.83 dB 2:32 03-She Sweeps With Many-Colored Brooms
DR11 -2.11 dB -16.34 dB 1:17 04-Ah, Teneriffe!
DR9 -2.11 dB -15.45 dB 0:39 05-Who Is The East?
DR12 -1.80 dB -17.89 dB 1:47 06-They Called Me To The Window
DR10 -0.30 dB -15.02 dB 0:57 07-This Is The Land The Sunset Washes
DR8 -2.10 dB -14.49 dB 1:10 08-Like Mighty Foot Lights Burned The Red
DR10 -1.51 dB -16.60 dB 0:49 09-Exultation Is The Going
DR10 -0.29 dB -12.68 dB 2:39 10-In Falling Timbers Buried
DR8 -3.32 dB -16.82 dB 0:31 11-With Thee In The Desert
DR10 -0.28 dB -13.20 dB 2:11 12-I See Thee Better In The Dark
DR10 -3.40 dB -20.67 dB 0:55 13-Your Thoughts Don’t Have Words Every Day
DR10 -0.20 dB -13.63 dB 4:52 14-My Life Had Stood A Loaded Gun
DR10 -2.10 dB -15.41 dB 1:01 15-Eden Is That Old-Fashioned House
DR9 -2.13 dB -17.94 dB 0:37 16-Beauty Crowds Me Till I Die
DR11 -0.30 dB -14.52 dB 2:15 17-I Could Bring You Jewels Had I A Mind To
DR10 -0.30 dB -16.36 dB 1:56 18-Wild Nights - Wild Nights!
DR12 -0.29 dB -16.92 dB 2:29 19-Only A Shrine, But Mine
DR12 -0.30 dB -16.74 dB 1:31 20-Tho’ My Destiny Be Fustian
DR10 -2.23 dB -17.79 dB 1:51 21-What Shall I Do It Whimpers So
DR10 -0.29 dB -16.56 dB 1:23 22-Heart! We Will Forget Him!
DR10 -2.09 dB -16.98 dB 1:03 23-Strong Draughts Of Their Refreshing Minds
DR9 -0.24 dB -13.03 dB 2:54 24-Tell As A Marksman Were Forgotten
DR11 -0.26 dB -14.28 dB 2:44 25-The Spider Holds A Silver Ball
DR12 -2.11 dB -17.75 dB 1:14 26-Whoever Disenchants
––––––––––––––––––––––––––––––––––––––––

Number of tracks: 26
Official DR value: DR10

Samplerate: 44100 Hz
Channels: 2
Bits per sample: 16
Bitrate: 639 kbps
Codec: FLAC
================================================================================

Josephine Foster - Graphic As A Star (2009)

Josephine Foster - Graphic As A Star (2009)

All thanks to original releaser - desordenado

More interesting music in My Blog