Subcategories
Please register here if you want to download anything!

If domain in your address bar is different from the list below
PLEASE LEAVE THAT SITE IMMEDIATELY
❗IT'S A DANGEROUS FAKE❗



Spicy Magazines for Men! ;-)

John Scofield - The John Scofield Quartet Plays Live (1993)

Posted By: gribovar
John Scofield - The John Scofield Quartet Plays Live (1993)

John Scofield - The John Scofield Quartet Plays Live (1993)
EAC Rip | WavPack (image+.cue+log) - 247 MB | MP3 CBR 320 kbps (LAME 3.93) - 95 MB | Covers (4 MB) included
Genre: Jazz | RAR 3% Rec. | Label: Jazz Door (JD 1249)

Known for his distinctive, slightly distorted sound, jazz guitarist John Scofield is a masterful jazz improviser who has straddled the lines between straight-ahead post-bop, fusion, funk, and soul-jazz. One of the "big three" of late 20th century jazz guitarists (along with Pat Metheny and Bill Frisell), Scofield's influence grew in the '90s and continued into the 21st century. He first emerged in the mid-'70s playing with trumpeter Chet Baker and drummer Billy Cobham before launching his solo career with albums like 1977's East Meets West and 1981's Out Like a Light. He was an integral member of Miles Davis' ensemble in the '80s, and continued to issue his own albums like 1986's Blue Matter and 1998's A Go Go with Medeski, Martin & Wood. Well into his fourth decade as a performer, Scofield continues to garner critical acclaim, including winning Grammy Awards for 2015's Past Present and 2016's Country for Old Men.
Tracklist:
01. Stranger To The Light
02. Meant To Be
03. Chariots

Total time: 38:45

Exact Audio Copy V1.0 beta 3 from 29. August 2011

EAC extraction logfile from 18. July 2012, 14:28

John Scofield Quartet / The John Scofield Quartet Plays Live

Used drive : HL-DT-STBDDVDRW GBC-H20N Adapter: 1 ID: 0

Read mode : Secure
Utilize accurate stream : Yes
Defeat audio cache : Yes
Make use of C2 pointers : No

Read offset correction : 667
Overread into Lead-In and Lead-Out : No
Fill up missing offset samples with silence : Yes
Delete leading and trailing silent blocks : No
Null samples used in CRC calculations : Yes
Used interface : Native Win32 interface for Win NT & 2000

Used output format : User Defined Encoder
Selected bitrate : 1024 kBit/s
Quality : High
Add ID3 tag : No
Command line compressor : C:\Program Files\Exact Audio Copy\wavpack.exe
Additional command line options : -hm %source% %dest%


TOC of the extracted CD

Track | Start | Length | Start sector | End sector
––––––––––––––––––––––––––––-
1 | 0:00.00 | 15:08.00 | 0 | 68099
2 | 15:08.00 | 9:24.00 | 68100 | 110399
3 | 24:32.00 | 14:13.17 | 110400 | 174391


Range status and errors

Selected range

Filename C:\Users\ProgDog\Music\19 - 1993 - The John Scofield Quartet Plays Live\John Scofield Quartet - The John Scofield Quartet Plays Live.wav

Peak level 98.6 %
Extraction speed 5.6 X
Range quality 100.0 %
Test CRC BBDD8660
Copy CRC BBDD8660
Copy OK

No errors occurred


AccurateRip summary

Track 1 cannot be verified as accurate (confidence 4) [D9A91C7C], AccurateRip returned [289F93A4] (AR v2)
Track 2 cannot be verified as accurate (confidence 4) [7A2EBCF9], AccurateRip returned [035DFD4B] (AR v2)
Track 3 cannot be verified as accurate (confidence 4) [B6AC466B], AccurateRip returned [5B0B500D] (AR v2)

No tracks could be verified as accurate
You may have a different pressing from the one(s) in the database

End of status report

–– CUETools DB Plugin V2.1.3

[CTDB TOCID: QbRwYrj1eCzNAE8WrDQAJ9MjpKg-] found, Submit result: QbRwYrj1eCzNAE8WrDQAJ9MjpKg- has been confirmed
[ff0f50cb] (6/6) Accurately ripped


==== Log checksum B940AEC0EAD908529F287CE42E9920E0F90FF86AB09508441854875831300F3B ====

[CUETools log; Date: 03.11.2018 15:59:17; Version: 2.1.4]
[CTDB TOCID: QbRwYrj1eCzNAE8WrDQAJ9MjpKg-] found.
Track | CTDB Status
1 | (20/20) Accurately ripped
2 | (20/20) Accurately ripped
3 | (19/20) Accurately ripped
[AccurateRip ID: 0005627c-0011c6a9-1c091503] found.
Track [ CRC | V2 ] Status
01 [5ae625dd|d9a91c7c] (00+02/15) Accurately ripped
02 [d824e742|7a2ebcf9] (00+02/15) Accurately ripped
03 [d1e6e34d|b6ac466b] (00+02/15) Accurately ripped
Offsetted by 664:
01 [289f93a4] (04/15) Accurately ripped
02 [035dfd4b] (04/15) Accurately ripped
03 [5b0b500d] (04/15) Accurately ripped
Offsetted by -212:
01 [9b85c176] (00/15) No match (V2 was not tested)
02 [8cdc6600] (00/15) No match (V2 was not tested)
03 [4ae667be] (00/15) No match (V2 was not tested)

Track Peak [ CRC32 ] [W/O NULL] [ LOG ]
– 98,6 [BBDD8660] [9EDC34C4] CRC32
01 92,1 [65E7D969] [7493A176]
02 92,1 [76FA874E] [AAB1C73D]
03 98,6 [D25A41EB] [850C3DF8]

Thanks to arizonadream

See also: