Subcategories
Please register here if you want to download anything!

If domain in your address bar is different from the list below
PLEASE LEAVE THAT SITE IMMEDIATELY
❗IT'S A DANGEROUS FAKE❗



Spicy Magazines for Men! ;-)

John Scofield - A Go Go (1998) {Verve}

Posted By: tiburon
John Scofield - A Go Go (1998) {Verve}

John Scofield - A Go Go (1998) {Verve}
EAC 1.0b1 | FLAC tracks level 8 | Cue+Log+M3U | Full Scans 300dpi | 361MB + 5% Recovery
Genre: Jazz-Funk, Fusion
John Scofield - A Go Go (1998) {Verve}

John Scofield owes a great deal to Medeski, Martin & Wood for the success of A Go Go. The piano/organ, bass, and drum playing trio adds a world of bouncing vibes to Scofield's inquisitive, happy guitar work here. A Go Go is an album of mostly breezy, sometimes tense, jam-based grooves. The album's charm is in its "city meets the tropics" feel. The four players create such a warm, vibrant sound that resisting the urge to tap one's feet along with the beat becomes a near impossibility. The opening song is a treat of plucked guitars and tightly packed new jazz. Other standouts are "Kubrick," a swooning, gentle change of pace packed with background tension, and "Hottentot," a tour de force of dynamic interplay. There's nary a moment of filler to be found across the ten tracks. It's clear that Scofield enjoyed the collaboration, as his guitars seem to nearly speak joy. His alternately jangling and plucking style sees him weaving in and out of the young trio's sound net with ample confidence. As fun as A Go Go is, it's just as well-sequenced, as Scofield and company vary their pace and tone expertly throughout the album's running time. A Go Go is far more than four cool cats jamming together and enjoying each other's company. It's an immensely entertaining, enlightening ride.
Track List
01. Go Go 6:36
02. Chank 6:46
03. Boozer 5:27
04. Southern Pacific 5:13
05. Jeep On 35 4:31
06. Kubrick 2:13
07. Green Tea 5:11
08. Hottentot 6:46
09. Chicken Dog 6:22
10. Deadzy 2:41

musicians
John Scofield – electric & acoustic guitars, whistle
John Medeski – organ, Wurlitzer, clavinet, piano
Chris Wood – acoustic & electric basses
Billy Martin – drums, tambourine

Produced by Lee Townsend


Exact Audio Copy V1.0 beta 1 from 15. November 2010

EAC extraction logfile from 24. February 2012, 16:24

John Scofield / A Go Go

Used drive : HL-DT-STDVD+-RW GSA-T21N Adapter: 0 ID: 0

Read mode : Secure
Utilize accurate stream : Yes
Defeat audio cache : Yes
Make use of C2 pointers : No

Read offset correction : 667
Overread into Lead-In and Lead-Out : No
Fill up missing offset samples with silence : Yes
Delete leading and trailing silent blocks : No
Null samples used in CRC calculations : Yes
Used interface : Native Win32 interface for Win NT & 2000
Gap handling : Appended to previous track

Used output format : User Defined Encoder
Selected bitrate : 896 kBit/s
Quality : High
Add ID3 tag : No
Command line compressor : C:\Program Files\Audio\Exact Audio Copy\Flac\flac.exe
Additional command line options : -8 -V -T "ARTIST=%a" -T "TITLE=%t" -T "ALBUM=%g" -T "DATE=%y" -T "TRACKNUMBER=%n" -T "TOTALTRACKS=%x" -T "GENRE=%m" -T "ALBUMARTIST=%v" -T "ALBUM ARTIST=%v" -T "COMMENT=EAC Secure Mode, Test & Copy, AccurateRip, FLAC -8" %s


TOC of the extracted CD

Track | Start | Length | Start sector | End sector
––––––––––––––––––––––––––––-
1 | 0:00.00 | 6:36.13 | 0 | 29712
2 | 6:36.13 | 6:46.72 | 29713 | 60234
3 | 13:23.10 | 5:27.65 | 60235 | 84824
4 | 18:51.00 | 5:13.58 | 84825 | 108357
5 | 24:04.58 | 4:31.07 | 108358 | 128689
6 | 28:35.65 | 2:13.60 | 128690 | 138724
7 | 30:49.50 | 5:11.45 | 138725 | 162094
8 | 36:01.20 | 6:46.10 | 162095 | 192554
9 | 42:47.30 | 6:22.08 | 192555 | 221212
10 | 49:09.38 | 2:41.33 | 221213 | 233320


Track 1

Filename C:\Torrents\John Scofield - A Go Go (1998) [FLAC] {Verve 539 979-2}\01 - A Go Go.wav

Pre-gap length 0:00:02.00

Peak level 97.9 %
Extraction speed 2.8 X
Track quality 99.9 %
Test CRC EDC64BC5
Copy CRC EDC64BC5
Accurately ripped (confidence 4) [6324BA37]
Copy OK

Track 2

Filename C:\Torrents\John Scofield - A Go Go (1998) [FLAC] {Verve 539 979-2}\02 - Chank.wav

Pre-gap length 0:00:00.17

Peak level 97.9 %
Extraction speed 3.6 X
Track quality 100.0 %
Test CRC 1B5108C5
Copy CRC 1B5108C5
Accurately ripped (confidence 4) [78216AB0]
Copy OK

Track 3

Filename C:\Torrents\John Scofield - A Go Go (1998) [FLAC] {Verve 539 979-2}\03 - Boozer.wav

Peak level 97.9 %
Extraction speed 4.0 X
Track quality 100.0 %
Test CRC B606F0BE
Copy CRC B606F0BE
Accurately ripped (confidence 4) [A7A20BCC]
Copy OK

Track 4

Filename C:\Torrents\John Scofield - A Go Go (1998) [FLAC] {Verve 539 979-2}\04 - Southern Pacific.wav

Pre-gap length 0:00:01.07

Peak level 97.9 %
Extraction speed 4.2 X
Track quality 100.0 %
Test CRC BE79C6AD
Copy CRC BE79C6AD
Accurately ripped (confidence 3) [FCC2546F]
Copy OK

Track 5

Filename C:\Torrents\John Scofield - A Go Go (1998) [FLAC] {Verve 539 979-2}\05 - Jeep on 35.wav

Peak level 97.9 %
Extraction speed 4.5 X
Track quality 100.0 %
Test CRC DDF22184
Copy CRC DDF22184
Accurately ripped (confidence 4) [8329F03B]
Copy OK

Track 6

Filename C:\Torrents\John Scofield - A Go Go (1998) [FLAC] {Verve 539 979-2}\06 - Kubrick.wav

Peak level 94.6 %
Extraction speed 3.0 X
Track quality 99.9 %
Test CRC F7E3A14F
Copy CRC F7E3A14F
Accurately ripped (confidence 4) [90B9E7E4]
Copy OK

Track 7

Filename C:\Torrents\John Scofield - A Go Go (1998) [FLAC] {Verve 539 979-2}\07 - Green Tea.wav

Peak level 97.9 %
Extraction speed 4.9 X
Track quality 100.0 %
Test CRC 23956E39
Copy CRC 23956E39
Accurately ripped (confidence 4) [D6BBBE08]
Copy OK

Track 8

Filename C:\Torrents\John Scofield - A Go Go (1998) [FLAC] {Verve 539 979-2}\08 - Hottentot.wav

Peak level 97.9 %
Extraction speed 5.2 X
Track quality 100.0 %
Test CRC F3BACD67
Copy CRC F3BACD67
Accurately ripped (confidence 4) [BAF012FD]
Copy OK

Track 9

Filename C:\Torrents\John Scofield - A Go Go (1998) [FLAC] {Verve 539 979-2}\09 - Chicken Dog.wav

Peak level 97.9 %
Extraction speed 5.5 X
Track quality 100.0 %
Test CRC 6470336D
Copy CRC 6470336D
Accurately ripped (confidence 4) [B51F3A44]
Copy OK

Track 10

Filename C:\Torrents\John Scofield - A Go Go (1998) [FLAC] {Verve 539 979-2}\10 - Deadzy.wav

Peak level 97.9 %
Extraction speed 5.0 X
Track quality 100.0 %
Test CRC 2869C52A
Copy CRC 2869C52A
Accurately ripped (confidence 4) [7592905C]
Copy OK


All tracks accurately ripped

No errors occurred

End of status report

==== Log checksum 0E2FB24607A52FF557B99C02BBF5DBF06B8381411CB52A200E16D26471DEFCF2 ====


––––––––––––––––––––––––––––––––––––––––
Analyzed: John Scofield / A Go Go
––––––––––––––––––––––––––––––––––––––––

DR Peak RMS Duration Track
––––––––––––––––––––––––––––––––––––––––
DR11 -0.18 dB -13.34 dB 6:36 01-A Go Go
DR11 -0.18 dB -13.11 dB 6:47 02-Chank
DR11 -0.18 dB -12.96 dB 5:28 03-Boozer
DR12 -0.18 dB -14.13 dB 5:14 04-Southern Pacific
DR12 -0.18 dB -14.26 dB 4:31 05-Jeep on 35
DR12 -0.48 dB -14.75 dB 2:14 06-Kubrick
DR12 -0.18 dB -14.22 dB 5:12 07-Green Tea
DR9 -0.18 dB -11.27 dB 6:46 08-Hottentot
DR10 -0.18 dB -12.18 dB 6:22 09-Chicken Dog
DR12 -0.18 dB -15.34 dB 2:41 10-Deadzy
––––––––––––––––––––––––––––––––––––––––

Number of tracks: 10
Official DR value: DR11

Samplerate: 44100 Hz
Channels: 2
Bits per sample: 16
Bitrate: 681 kbps
Codec: FLAC
================================================================================

John Scofield - A Go Go (1998) {Verve}
John Scofield - A Go Go (1998) {Verve}
John Scofield - A Go Go (1998) {Verve}


Thanks to the original ripper