Subcategories

John Renbourn - The Nine Maidens (1985) {2005, Reissue} Re-Up

Posted By: popsakov
John Renbourn - The Nine Maidens (1985) {2005, Reissue} Re-Up

John Renbourn - The Nine Maidens (1985) {2005, Reissue}
EAC Rip | FLAC (Img) + Cue + Log ~ 207 Mb | MP3 CBR320 ~ 88 Mb
Full Scans ~ 128 Mb | RAR 5% Recovery
Folk | Castle Music / Sanctuary Records #CMRCD 1062

John Renbourn is a fingerstyle guitarist, singer and songwriter. He is known for his work in the group Pentangle, his solo recordings and his many collaborations with Stefan Grossman, Bert Jansch and Robin Williamson. Renbourn is usually categorized as a folk musician but he also has recorded blues, early (medieval and renaissance) classical music and world music. ~ Wiki

Renbourn devoted this often overlooked 1985 solo album to a set of guitar instrumentals that mixed deep folk roots with contemporary stylings. At their heart is the guitarist's love of mediaeval & renaissance music, captured here in its full glory. ~ Castle

John Renbourn turns in an album of guitar instrumentals (with a few other instruments added here and there) in The Nine Maidens. The dominant piece is the 13-minute title track, a three-movement original that allows Renbourn the space to work out interesting chord patterns along with fingerpicking and harmonics, beginning with the slow "Clarsach" passage before picking up speed with "The Nine Maidens" proper. Just before that, he has given lively play to "Circle Dance," having devoted the first side of the album to more contemplative pieces that might fit into the new age category, even for an artist who predates that designation by quite a few years. ~ William Ruhlmann, All Music

***************

John Renbourn - The Nine Maidens (1985) {2005, Reissue} Re-Up

John Renbourn - The Nine Maidens (1985) {2005, Reissue} Re-Up

Track List:

01. New Nothynge [04:07]
02. The Fish In The Well [02:31]
03. Pavan d' Aragon [05:46]
04. Variations on My Lady Carey's Dompe [06:14]
05. Circle Dance [04:29]
06. The Nine Maidens [13:25]

Exact Audio Copy V1.0 beta 6 from 9. April 2015

EAC extraction logfile from 9. June 2015, 18:08

John Renbourn / The Nine Maidens

Used drive : PLEXTOR DVDR PX-891SA Adapter: 0 ID: 2

Read mode : Secure
Utilize accurate stream : Yes
Defeat audio cache : Yes
Make use of C2 pointers : No

Read offset correction : 6
Overread into Lead-In and Lead-Out : No
Fill up missing offset samples with silence : Yes
Delete leading and trailing silent blocks : No
Null samples used in CRC calculations : Yes
Used interface : Installed external ASPI interface

Used output format : User Defined Encoder
Selected bitrate : 320 kBit/s
Quality : High
Add ID3 tag : No
Command line compressor : C:\Program Files\Exact Audio Copy 1.0 b6\Exact Audio Copy\Flac\flac.exe
Additional command line options : -V -8 -T "Date=%year%" -T "Genre=%genre%" %source%


TOC of the extracted CD

Track | Start | Length | Start sector | End sector
––––––––––––––––––––––––––––-
1 | 0:00.00 | 4:06.30 | 0 | 18479
2 | 4:06.30 | 2:30.12 | 18480 | 29741
3 | 6:36.42 | 5:45.50 | 29742 | 55666
4 | 12:22.17 | 6:13.65 | 55667 | 83706
5 | 18:36.07 | 4:28.10 | 83707 | 103816
6 | 23:04.17 | 13:24.60 | 103817 | 164176


Range status and errors

Selected range

Filename L:\Lossless Temp\John Renbourn\1985. John Renbourn - The Nine Maidens (2005 Sanctuary Records, CMRCD 1062, E.U.)\John Renbourn - The Nine Maidens.wav

Peak level 98.8 %
Extraction speed 7.3 X
Range quality 100.0 %
Test CRC 95F8DAEC
Copy CRC 95F8DAEC
Copy OK

No errors occurred


AccurateRip summary

Track 1 accurately ripped (confidence 2) [875E2FDE] (AR v1)
Track 2 accurately ripped (confidence 2) [1618D5FC] (AR v1)
Track 3 accurately ripped (confidence 2) [EB2C4D94] (AR v1)
Track 4 accurately ripped (confidence 2) [9F37F400] (AR v1)
Track 5 accurately ripped (confidence 2) [C7D0ACAB] (AR v1)
Track 6 accurately ripped (confidence 2) [312ED014] (AR v1)

All tracks accurately ripped

End of status report

==== Log checksum 5BF36B5DAEF09237AA49BAC3D13D99BC8EB0F76BA05FAA79A5CA10F2C85A864D ====

[CUETools log; Date: 15.03.2019 19:54:43; Version: 2.1.6]
[CTDB TOCID: ISMvGjTYxOteY7zm4wnVJcSu8JE-] found.
Track | CTDB Status
1 | (19/19) Accurately ripped
2 | (19/19) Accurately ripped
3 | (19/19) Accurately ripped
4 | (19/19) Accurately ripped
5 | (19/19) Accurately ripped
6 | (19/19) Accurately ripped
[AccurateRip ID: 0006f3a6-0026c00b-50088d06] found.
Track [ CRC | V2 ] Status
01 [875e2fde|f8e09283] (02+00/12) Accurately ripped
02 [1618d5fc|8bbbd882] (02+00/12) Accurately ripped
03 [eb2c4d94|b287c109] (02+00/12) Accurately ripped
04 [9f37f400|85fcecf1] (02+00/12) Accurately ripped
05 [c7d0acab|fb4977aa] (02+00/12) Accurately ripped
06 [312ed014|915c435b] (02+00/12) Accurately ripped
Offsetted by -658:
01 [2be00adc] (00/12) No match (V2 was not tested)
02 [a64557a6] (00/12) No match (V2 was not tested)
03 [b15c0f50] (00/12) No match (V2 was not tested)
04 [e848eefe] (00/12) No match (V2 was not tested)
05 [42715d77] (00/12) No match (V2 was not tested)
06 [302119e6] (00/12) No match (V2 was not tested)
Offsetted by 18:
01 [1e7da660] (00/12) No match (V2 was not tested)
02 [35f244d2] (00/12) No match (V2 was not tested)
03 [ed885ed8] (00/12) No match (V2 was not tested)
04 [95704a82] (00/12) No match (V2 was not tested)
05 [236402df] (00/12) No match (V2 was not tested)
06 [8f5d18c2] (00/12) No match (V2 was not tested)

Track Peak [ CRC32 ] [W/O NULL] [ LOG ]
– 98,8 [95F8DAEC] [F3168454] CRC32
01 98,8 [CF4312E6] [6FDB9E91]
02 96,6 [AF09B109] [7CAE28F5]
03 98,8 [3E661AA5] [E37C7222]
04 98,8 [0F492A03] [6CC9AC94]
05 98,8 [8F04B5D4] [B816B9BC]
06 98,8 [985732CF] [D189C800]

John Renbourn - The Nine Maidens (1985) {2005, Reissue} Re-Up

All thanks go to Swamp Fox

>>> My Blog <<<

Download from icerbox.com: