Subcategories
Tags
Language
Tags

Joanna Connor - Believe It! (1989)

Posted By: Designol
Joanna Connor - Believe It! (1989)

Joanna Connor - Believe It! (1989)
EAC | FLAC | Tracks (Cue&Log) ~ 248 Mb | Mp3 (CBR320) ~ 95 Mb | Scans included
Blues Rock, Modern Electric Blues | Label: Blind Pig | # BP 73289 | Time: 00:40:28

On the surface, Believe It! is standard-issue bar-band blues-rock, but it is distinguished by Joanna Connor's passion for the music. Connor believes in the music so much, it can't help but appear in the grooves every once in a while. In particular, her guitar playing is noteworthy – it's tough, greasy, and powerful. Believe It! suffers from a lack of memorable songs – she's still trying to develop a distinctive songwriting voice – but Connor's strong performances carry the album through any weak moments.

Review by Thom Owens, Allmusic.com

Joanna Connor - Believe It! (1989)



Tracklist:

01. Texas Flyer (03:23)
02. He's Mine (03:55)
03. Doctor Feelgood (05:06)
04. I'm Satisfied (03:33)
05. When You're Being Nice (03:55)
06. Pack It Up (03:42)
07. Everybody I Know (03:11)
08. Playing in the Dirt (03:58)
09. Soul's on Fire (03:14)
10. Somebody's on Your Case (03:56)
11. Good Rockin' Daddy (02:29)


Exact Audio Copy V0.99 prebeta 5 from 4. May 2009

EAC extraction logfile from 8. May 2010, 7:11

Joanna Connor / Believe It!

Used drive : ASUS DRW-1612BL Adapter: 0 ID: 0

Read mode : Secure
Utilize accurate stream : Yes
Defeat audio cache : Yes
Make use of C2 pointers : No

Read offset correction : 6
Overread into Lead-In and Lead-Out : No
Fill up missing offset samples with silence : Yes
Delete leading and trailing silent blocks : No
Null samples used in CRC calculations : Yes
Used interface : Native Win32 interface for Win NT & 2000
Gap handling : Appended to previous track

Used output format : User Defined Encoder
Selected bitrate : 320 kBit/s
Quality : High
Add ID3 tag : No
Command line compressor : C:\Program Files\FLAC\flac.exe
Additional command line options : -V -8 -T "artist=%a" -T "title=%t" -T "album=%g" -T "date=%y" -T "tracknumber=%n" -T "genre=%m" %s


TOC of the extracted CD

Track | Start | Length | Start sector | End sector
––––––––––––––––––––––––––––-
1 | 0:00.00 | 3:23.00 | 0 | 15224
2 | 3:23.00 | 3:55.45 | 15225 | 32894
3 | 7:18.45 | 5:06.62 | 32895 | 55906
4 | 12:25.32 | 3:33.23 | 55907 | 71904
5 | 15:58.55 | 3:55.35 | 71905 | 89564
6 | 19:54.15 | 3:42.62 | 89565 | 106276
7 | 23:37.02 | 3:11.68 | 106277 | 120669
8 | 26:48.70 | 3:58.30 | 120670 | 138549
9 | 30:47.25 | 3:14.52 | 138550 | 153151
10 | 34:02.02 | 3:56.65 | 153152 | 170916
11 | 37:58.67 | 2:29.05 | 170917 | 182096


Track 1

Filename C:\EAC Extractions\Joanna Connor - Believe It! (1989) [FLAC]\01 - Texas Flyer.wav

Pre-gap length 0:00:02.00

Peak level 94.8 %
Track quality 100.0 %
Test CRC C4F8F449
Copy CRC C4F8F449
Accurately ripped (confidence 1) [AFC812EE]
Copy OK

Track 2

Filename C:\EAC Extractions\Joanna Connor - Believe It! (1989) [FLAC]\02 - He's Mine.wav

Pre-gap length 0:00:04.33

Peak level 75.5 %
Track quality 100.0 %
Test CRC 48F32A6C
Copy CRC 48F32A6C
Accurately ripped (confidence 1) [755E9F8A]
Copy OK

Track 3

Filename C:\EAC Extractions\Joanna Connor - Believe It! (1989) [FLAC]\03 - Doctor Feelgood.wav

Pre-gap length 0:00:04.13

Peak level 99.9 %
Track quality 99.9 %
Test CRC 99B460AC
Copy CRC 99B460AC
Accurately ripped (confidence 1) [202BBC02]
Copy OK

Track 4

Filename C:\EAC Extractions\Joanna Connor - Believe It! (1989) [FLAC]\04 - I'm Satisfied.wav

Pre-gap length 0:00:02.73

Peak level 74.0 %
Track quality 100.0 %
Test CRC 70DBD746
Copy CRC 70DBD746
Accurately ripped (confidence 1) [10FA604F]
Copy OK

Track 5

Filename C:\EAC Extractions\Joanna Connor - Believe It! (1989) [FLAC]\05 - When You're Being Nice.wav

Pre-gap length 0:00:04.46

Peak level 83.9 %
Track quality 100.0 %
Test CRC F8975D6F
Copy CRC F8975D6F
Accurately ripped (confidence 1) [D03D17D8]
Copy OK

Track 6

Filename C:\EAC Extractions\Joanna Connor - Believe It! (1989) [FLAC]\06 - Pack It Up.wav

Pre-gap length 0:00:04.37

Peak level 95.6 %
Track quality 99.9 %
Test CRC 63C3BBF4
Copy CRC 63C3BBF4
Accurately ripped (confidence 1) [04ED0937]
Copy OK

Track 7

Filename C:\EAC Extractions\Joanna Connor - Believe It! (1989) [FLAC]\07 - Everybody I Know.wav

Pre-gap length 0:00:03.76

Peak level 83.9 %
Track quality 99.9 %
Test CRC D9C7CE3F
Copy CRC D9C7CE3F
Accurately ripped (confidence 1) [B62DDA62]
Copy OK

Track 8

Filename C:\EAC Extractions\Joanna Connor - Believe It! (1989) [FLAC]\08 - Playing in the Dirt.wav

Pre-gap length 0:00:03.24

Peak level 100.0 %
Track quality 99.9 %
Test CRC 3F551866
Copy CRC 3F551866
Accurately ripped (confidence 1) [4FCBB9BD]
Copy OK

Track 9

Filename C:\EAC Extractions\Joanna Connor - Believe It! (1989) [FLAC]\09 - Soul's on Fire.wav

Pre-gap length 0:00:04.50

Peak level 72.3 %
Track quality 100.0 %
Test CRC 3DB1A57E
Copy CRC 3DB1A57E
Accurately ripped (confidence 1) [9AE527A1]
Copy OK

Track 10

Filename C:\EAC Extractions\Joanna Connor - Believe It! (1989) [FLAC]\10 - Somebody's on Your Case.wav

Pre-gap length 0:00:04.49

Peak level 87.9 %
Track quality 100.0 %
Test CRC DF5DA8DC
Copy CRC DF5DA8DC
Accurately ripped (confidence 1) [1DC0B2C3]
Copy OK

Track 11

Filename C:\EAC Extractions\Joanna Connor - Believe It! (1989) [FLAC]\11 - Good Rockin' Daddy.wav

Pre-gap length 0:00:02.96

Peak level 84.5 %
Track quality 100.0 %
Test CRC 9E5427A5
Copy CRC 9E5427A5
Accurately ripped (confidence 1) [962619AA]
Copy OK


All tracks accurately ripped

No errors occurred

End of status report

[CUETools log; Date: 01.12.2016 15:52:53; Version: 2.1.4]
[CTDB TOCID: Smro8g2rpH0hRhprdSA6H0.OBSU-] found.
Track | CTDB Status
1 | (6/7) Accurately ripped
2 | (6/7) Accurately ripped
3 | (6/7) Accurately ripped
4 | (6/7) Accurately ripped
5 | (6/7) Accurately ripped
6 | (6/7) Accurately ripped
7 | (6/7) Accurately ripped
8 | (6/7) Accurately ripped
9 | (6/7) Accurately ripped
10 | (6/7) Accurately ripped
11 | (6/7) Accurately ripped
[AccurateRip ID: 00115a08-009593cb-86097b0b] found.
Track [ CRC | V2 ] Status
01 [afc812ee|d42ac3e6] (2+3/5) Accurately ripped
02 [755e9f8a|7031ee34] (2+3/5) Accurately ripped
03 [202bbc02|28914db5] (2+3/5) Accurately ripped
04 [10fa604f|8d96dd5a] (2+3/5) Accurately ripped
05 [d03d17d8|0cc3ee5e] (2+3/5) Accurately ripped
06 [04ed0937|d7e73e4d] (2+3/5) Accurately ripped
07 [b62dda62|f531721c] (2+3/5) Accurately ripped
08 [4fcbb9bd|d4b8ecb0] (2+3/5) Accurately ripped
09 [9ae527a1|069e172d] (2+3/5) Accurately ripped
10 [1dc0b2c3|76e148c3] (2+3/5) Accurately ripped
11 [962619aa|48464382] (2+3/5) Accurately ripped

Track Peak [ CRC32 ] [W/O NULL] [ LOG ]
– 100,0 [6D5A3E7E] [DAE3B7E5]
01 94,8 [C4F8F449] [6D91434B] CRC32
02 75,5 [48F32A6C] [74373785] CRC32
03 99,9 [99B460AC] [D9927856] CRC32
04 74,0 [70DBD746] [4489937C] CRC32
05 83,9 [F8975D6F] [6C46DD29] CRC32
06 95,6 [63C3BBF4] [16B01FB9] CRC32
07 83,9 [D9C7CE3F] [706F0002] CRC32
08 100,0 [3F551866] [895BDC77] CRC32
09 72,3 [3DB1A57E] [7B21CE65] CRC32
10 87,9 [DF5DA8DC] [82EA17A5] CRC32
11 84,5 [9E5427A5] [27FF9B38] CRC32

foobar2000 1.2 / Dynamic Range Meter 1.1.1
log date: 2016-12-01 16:16:34

––––––––––––––––––––––––––––––––––––––––
Analyzed: Joanna Connor / Believe It!
––––––––––––––––––––––––––––––––––––––––

DR Peak RMS Duration Track
––––––––––––––––––––––––––––––––––––––––
DR16 -0.46 dB -18.40 dB 3:23 01-Texas Flyer
DR14 -2.44 dB -18.20 dB 3:56 02-He's Mine
DR16 0.00 dB -18.31 dB 5:07 03-Doctor Feelgood
DR13 -2.61 dB -18.01 dB 3:33 04-I'm Satisfied
DR15 -1.52 dB -19.15 dB 3:55 05-When You're Being Nice
DR15 -0.39 dB -18.00 dB 3:43 06-Pack It Up
DR14 -1.52 dB -17.56 dB 3:12 07-Everybody I Know
DR16 0.00 dB -18.86 dB 3:58 08-Playing in the Dirt
DR14 -2.81 dB -19.21 dB 3:15 09-Soul's on Fire
DR15 -1.12 dB -18.86 dB 3:57 10-Somebody's on Your Case
DR16 -1.46 dB -19.09 dB 2:29 11-Good Rockin' Daddy
––––––––––––––––––––––––––––––––––––––––

Number of tracks: 11
Official DR value: DR15

Samplerate: 44100 Hz
Channels: 2
Bits per sample: 16
Bitrate: 826 kbps
Codec: FLAC
================================================================================

Joanna Connor - Believe It! (1989)

Joanna Connor - Believe It! (1989)

All thanks to original releaser

More interesting music in My Blog