Tags
Language
Tags

Jean-Christophe Frisch, XVIII-21 Musique des Lumieres – Vivaldi: Les Sonates pour Flute Traversiere (1998)

Posted By: tirexiss
Jean-Christophe Frisch, XVIII-21 Musique des Lumieres – Vivaldi: Les Sonates pour Flute Traversiere (1998)

Jean-Christophe Frisch, XVIII-21 Musique des Lumieres – Vivaldi: Les Sonates pour Flute Traversiere (1998)
EAC | FLAC (image+.cue, log) | Covers Included | 01:07:15 | 410 MB
Genre: Classical | Label: Accord | Catalog: 241882

Je découvre une interprétation extraordinaire de Vivaldi. Le contraste est saisissant entre une basse continue très variée en timbre, chantante et dansante et l'archaïsme (au sens noble du terme) de la partie soliste, très teintée de musique française du 17ième siècle. Nous pourrions entendre des suites de Hotteterre ou de Marais. Cette intériorité et hauteur sied merveilleusement l'intimité de ces sonates, jusqu'à en faire une expérience spirituelle. Quelle est la part de rationnel dans l'interprétation de Mr Frisch ? On s'en moque, c'est tout simplement beau.

Jean-Christophe Frisch, XVIII-21 Musique des Lumieres – Vivaldi: Les Sonates pour Flute Traversiere (1998)

Track List:

Sonate en Fa majeur RV 52
1. I. Prelude
2. II. Allemande
3. III. Siciliano
4. IV. Allegro (Aria di Giga)
Sonate en Re mineur RV 49
5. I. Prelude
6. II. Preludio (Largo)
7. III. Siciliana (Adagio)
8. IV. Allegro (Sarabanda)
9. V. Allegro
Sonate en Mi mineur RV 50
10. I. Andante
11. II. Siciliano
12. III. Allegro
13. IV. Arioso
Sonate en Sol mineur RV 58
14. I. Prelude
15. II. Vivace
16. III. Alla breve (Fuga a capella)
17. IV. Largo
18. V. Allegro ma non presto
Sonate en Ut mineur RV 53
19. I. Adagio
20. II. Allegro
21. III. Andante
22. IV. Allegro
Sonate en Re majeur RV 48
23. I. Affettuoso
24. II. Allegro assai
25. III. Larghetto
26. IV. Allegro
Sonate en Sol mineur RV 51
27. I. Prelude
28. II. Largo
29. III. Allegro
30. IV. Andante
31. V. Allegro

Performers:
XVIII-21 Musique des Lumieres:
Jean-Christophe Frisch, flute traversiere baroque
Christine Plubeau, viole de gambe
Pascal Bouquet, archiluth
Claude Wassmer, basson baroque
Alessandro de Marchi, clavecin

Exact Audio Copy V0.99 prebeta 5 from 4. May 2009

EAC extraction logfile from 26. August 2018, 13:52

Jean-Christophe Frisch / Vivaldi - Sonates pour Flute Traversiere

Used drive : HL-DT-STBDDVDRW CT30N Adapter: 0 ID: 0

Read mode : Secure
Utilize accurate stream : Yes
Defeat audio cache : Yes
Make use of C2 pointers : No

Read offset correction : 102
Overread into Lead-In and Lead-Out : No
Fill up missing offset samples with silence : Yes
Delete leading and trailing silent blocks : No
Null samples used in CRC calculations : Yes
Used interface : Native Win32 interface for Win NT & 2000

Used output format : User Defined Encoder
Selected bitrate : 768 kBit/s
Quality : High
Add ID3 tag : No
Command line compressor : C:\Program Files (x86)\Exact Audio Copy\FLAC\FLAC.EXE
Additional command line options : -6 -V -T "ARTIST=%a" -T "TITLE=%t" -T "ALBUM=%g" -T "DATE=%y" -T "TRACKNUMBER=%n" -T "GENRE=%m" -T "COMMENT=%e" %s -o %d


TOC of the extracted CD

Track | Start | Length | Start sector | End sector
––––––––––––––––––––––––––––-
1 | 0:00.33 | 1:01.02 | 33 | 4609
2 | 1:01.35 | 2:51.38 | 4610 | 17472
3 | 3:52.73 | 2:22.20 | 17473 | 28142
4 | 6:15.18 | 0:32.35 | 28143 | 30577
5 | 6:47.53 | 1:42.27 | 30578 | 38254
6 | 8:30.05 | 2:24.60 | 38255 | 49114
7 | 10:54.65 | 4:04.50 | 49115 | 67464
8 | 14:59.40 | 1:18.05 | 67465 | 73319
9 | 16:17.45 | 1:04.20 | 73320 | 78139
10 | 17:21.65 | 4:46.65 | 78140 | 99654
11 | 22:08.55 | 2:30.10 | 99655 | 110914
12 | 24:38.65 | 2:06.43 | 110915 | 120407
13 | 26:45.33 | 2:12.15 | 120408 | 130322
14 | 28:57.48 | 0:32.70 | 130323 | 132792
15 | 29:30.43 | 1:22.52 | 132793 | 138994
16 | 30:53.20 | 1:56.43 | 138995 | 147737
17 | 32:49.63 | 1:23.02 | 147738 | 153964
18 | 34:12.65 | 3:21.63 | 153965 | 169102
19 | 37:34.53 | 3:00.15 | 169103 | 182617
20 | 40:34.68 | 2:20.65 | 182618 | 193182
21 | 42:55.58 | 2:34.50 | 193183 | 204782
22 | 45:30.33 | 2:27.65 | 204783 | 215872
23 | 47:58.23 | 3:34.62 | 215873 | 231984
24 | 51:33.10 | 1:44.63 | 231985 | 239847
25 | 53:17.73 | 2:19.07 | 239848 | 250279
26 | 55:37.05 | 2:03.48 | 250280 | 259552
27 | 57:40.53 | 1:26.47 | 259553 | 266049
28 | 59:07.25 | 2:37.70 | 266050 | 277894
29 | 61:45.20 | 1:53.38 | 277895 | 286407
30 | 63:38.58 | 2:20.62 | 286408 | 296969
31 | 65:59.45 | 1:12.53 | 296970 | 302422


Range status and errors

Selected range

Filename D:\UTORRENT\Vivaldi - Sonates pour Flute Traversiere (Jean-Christophe Frisch)\Jean-Christophe Frisch - Vivaldi - Sonates pour Flute Traversiere.wav

Peak level 91.7 %
Range quality 99.9 %
Test CRC 4F881E39
Copy CRC 4F881E39
Copy OK

No errors occurred


AccurateRip summary

Track 1 not present in database
Track 2 not present in database
Track 3 not present in database
Track 4 not present in database
Track 5 not present in database
Track 6 not present in database
Track 7 not present in database
Track 8 not present in database
Track 9 not present in database
Track 10 not present in database
Track 11 not present in database
Track 12 not present in database
Track 13 not present in database
Track 14 not present in database
Track 15 not present in database
Track 16 not present in database
Track 17 not present in database
Track 18 not present in database
Track 19 not present in database
Track 20 not present in database
Track 21 not present in database
Track 22 not present in database
Track 23 not present in database
Track 24 not present in database
Track 25 not present in database
Track 26 not present in database
Track 27 not present in database
Track 28 not present in database
Track 29 not present in database
Track 30 not present in database
Track 31 not present in database

None of the tracks are present in the AccurateRip database

End of status report

Thanks to the Original ripper (Il-lustrator)!

Download: