Subcategories

Jacky Terrasson - Gouache (2012)

Posted By: tiburon
Jacky Terrasson - Gouache (2012)

Jacky Terrasson - Gouache (2012)
EAC 1.0b3 | FLAC tracks level 8 | Cue+Log+M3U | Full Scans 600dpi | 298MB + 5% Recovery
MP3 CBR 320 Kbps | 131MB + 5% Recovery
Genre: Jazz, Modern Creative, Post-Bop

Pianist Jacky Terrasson's 2012 album Gouache is an eclectic, playful, and often beautiful album that showcases the pianist's lithe, technically adept jazz skills alongside a handful of guest artists. Terrasson is a gifted composer and improviser in a variety of jazz idioms, from straight-ahead, standards-based jazz to more contemporary and even avant-garde styles. He brings all of this to bear on Gouache. While Terrasson's virtuosic piano chops are the focal point of the release, it is also his choice of excellent sidemen here, including trumpeter Stephane Belmondo and bass clarinetist Michel Portal, that helps make the album such a buoyant and joyful listen.
Track List
01. Try To Catch Me 4:07
02. Baby 3:22
03. Je Te Veux 5:25
04. Rehab 3:55
05. Gouache 5:20
06. Oh My Love 4:48
07. Mother 6:50
08. Happiness 7:42
09. Valse Hot 4:06
10. C’Est Si Bon 6:05

musicians
Jacky Terrasson - piano, Fender Rhodes
Stephane Belmondo - flugelhorn, trumpet
Michel Portal - bass clarinet
Minino Garay - percussion
Burniss Earl Travis - double bass, electric bass
Justin Faulkner - drums
Cecile McLorin Salvant - vocals on tracks 3, 6


Exact Audio Copy V1.0 beta 3 from 29. August 2011

EAC extraction logfile from 25. August 2012, 16:05

Jacky Terrasson / Gouache

Used drive : PHILIPS SPD3400CC Adapter: 3 ID: 0

Read mode : Secure
Utilize accurate stream : Yes
Defeat audio cache : Yes
Make use of C2 pointers : No

Read offset correction : 6
Overread into Lead-In and Lead-Out : No
Fill up missing offset samples with silence : Yes
Delete leading and trailing silent blocks : No
Null samples used in CRC calculations : Yes
Used interface : Installed external ASPI interface
Gap handling : Appended to previous track

Used output format : User Defined Encoder
Selected bitrate : 1024 kBit/s
Quality : High
Add ID3 tag : No
Command line compressor : C:\Program Files (x86)\Exact Audio Copy\FLAC\FLAC.EXE
Additional command line options : -8 -V -T "ARTIST=%artist%" -T "TITLE=%title%" -T "ALBUM=%albumtitle%" -T "DATE=%year%" -T "TRACKNUMBER=%tracknr%" -T "TOTALTRACKS=%numtracks%" -T "GENRE=%genre%" -T "ALBUM ARTIST=%albumartist%" -T "ALBUMARTIST=%albumartist%" -T "COMMENT=EAC V1.0 beta 3, Secure Mode, Test & Copy, AccurateRip, FLAC -8" %source%


TOC of the extracted CD

Track | Start | Length | Start sector | End sector
––––––––––––––––––––––––––––-
1 | 0:00.00 | 4:06.70 | 0 | 18519
2 | 4:06.70 | 3:21.59 | 18520 | 33653
3 | 7:28.54 | 5:24.03 | 33654 | 57956
4 | 12:52.57 | 3:55.45 | 57957 | 75626
5 | 16:48.27 | 4:33.67 | 75627 | 96168
6 | 21:22.19 | 4:47.70 | 96169 | 117763
7 | 26:10.14 | 6:50.65 | 117764 | 148578
8 | 33:01.04 | 7:42.56 | 148579 | 183284
9 | 40:43.60 | 4:06.41 | 183285 | 201775
10 | 44:50.26 | 6:02.57 | 201776 | 228982


Track 1

Filename C:\Rips\01 Try To Catch Me.wav

Pre-gap length 0:00:02.00

Peak level 98.8 %
Extraction speed 1.9 X
Track quality 100.0 %
Test CRC 3FDA5671
Copy CRC 3FDA5671
Track not present in AccurateRip database
Copy OK

Track 2

Filename C:\Rips\02 Baby.wav

Peak level 98.8 %
Extraction speed 2.0 X
Track quality 100.0 %
Test CRC 790E7334
Copy CRC 790E7334
Track not present in AccurateRip database
Copy OK

Track 3

Filename C:\Rips\03 Je Te Veux.wav

Peak level 98.8 %
Extraction speed 2.1 X
Track quality 99.9 %
Test CRC DF77585D
Copy CRC DF77585D
Track not present in AccurateRip database
Copy OK

Track 4

Filename C:\Rips\04 Rehab.wav

Peak level 98.8 %
Extraction speed 2.5 X
Track quality 100.0 %
Test CRC 4D50F77E
Copy CRC 4D50F77E
Track not present in AccurateRip database
Copy OK

Track 5

Filename C:\Rips\05 Gouache.wav

Peak level 98.8 %
Extraction speed 2.2 X
Track quality 99.9 %
Test CRC 5AD8B2BF
Copy CRC 5AD8B2BF
Track not present in AccurateRip database
Copy OK

Track 6

Filename C:\Rips\06 Oh My Love.wav

Peak level 98.8 %
Extraction speed 2.9 X
Track quality 100.0 %
Test CRC 85866DBC
Copy CRC 85866DBC
Track not present in AccurateRip database
Copy OK

Track 7

Filename C:\Rips\07 Mother.wav

Peak level 98.8 %
Extraction speed 3.2 X
Track quality 100.0 %
Test CRC FB39917E
Copy CRC FB39917E
Track not present in AccurateRip database
Copy OK

Track 8

Filename C:\Rips\08 Happiness.wav

Peak level 98.8 %
Extraction speed 3.4 X
Track quality 100.0 %
Test CRC 8814117F
Copy CRC 8814117F
Track not present in AccurateRip database
Copy OK

Track 9

Filename C:\Rips\09 Valse Hot.wav

Peak level 98.8 %
Extraction speed 3.4 X
Track quality 100.0 %
Test CRC B5CEC358
Copy CRC B5CEC358
Track not present in AccurateRip database
Copy OK

Track 10

Filename C:\Rips\10 C'est Si Bon.wav

Peak level 98.8 %
Extraction speed 3.7 X
Track quality 100.0 %
Test CRC FCDABAD4
Copy CRC FCDABAD4
Track not present in AccurateRip database
Copy OK


None of the tracks are present in the AccurateRip database

No errors occurred

End of status report

==== Log checksum FD893EC8F5B2375DF53B8A102DB0C88D7C06E00F1D08B2C94B55F00AA08C06EB ====


––––––––––––––––––––––––––––––––––––––––
Analyzed: Jacky Terrasson / Gouache
––––––––––––––––––––––––––––––––––––––––

DR Peak RMS Duration Track
––––––––––––––––––––––––––––––––––––––––
DR12 -0.10 dB -15.67 dB 4:07 01-Try To Catch Me
DR11 -0.10 dB -15.13 dB 3:22 02-Baby
DR13 -0.10 dB -17.89 dB 5:24 03-Je Te Veux
DR13 -0.10 dB -17.39 dB 3:56 04-Rehab
DR10 -0.10 dB -11.95 dB 4:34 05-Gouache
DR12 -0.10 dB -15.72 dB 4:48 06-Oh My Love
DR12 -0.10 dB -15.88 dB 6:51 07-Mother
DR9 -0.10 dB -12.68 dB 7:43 08-Happiness
DR16 -0.10 dB -18.32 dB 4:07 09-Valse Hot
DR12 -0.10 dB -14.85 dB 6:03 10-C'est Si Bon
––––––––––––––––––––––––––––––––––––––––

Number of tracks: 10
Official DR value: DR12

Samplerate: 44100 Hz
Channels: 2
Bits per sample: 16
Bitrate: 776 kbps
Codec: FLAC
================================================================================

Jacky Terrasson - Gouache (2012)
Jacky Terrasson - Gouache (2012)
Jacky Terrasson - Gouache (2012)


Thanks to the original ripper