Subcategories

Ibrahim Ferrer - Mi Sueno (2007)

Posted By: tiburon
Ibrahim Ferrer - Mi Sueno (2007)

Ibrahim Ferrer - Mi Sueno (2007)
EAC 0.95b3 | FLAC tracks level 8 | Cue+Log+M3U | Full Scans 300dpi | 317MB + 5% Recovery
MP3 CBR 320 Kbps | 106MB + 5% Recovery
Genre: Cuban Jazz, Bolero, Musica Cubana

The success of the Buena Vista Social Club series gave Cuban singer Ibrahim Ferrer the chance to finally begin his dream project in 2005, the recording of an entire album of bolero pieces, the musical form Ferrer loved above all others. Unfortunately the 78-year-old singer died in August of that year while sessions for the project were still underway, and that Mi Sueсo (My Dream) exists at all is in itself a small miracle. Ferrer left behind high-quality vocal demos of the boleros he still intended to record for the album, but these tapes were apparently misplaced and Ferrer's dream seemed destined to go unfulfilled. The demos were eventually recovered, and Mi Sueсo has finally seen the light of day. It is the perfect goodbye from Ferrer, a fitting and beautiful last testament that spotlights his easy and smoky vocals over subtle, non-intrusive arrangements generally featuring pianist Roberto Fonseca, guitarist Manuel Galbon, and bassist Cachito Lopez.
Track List
01. Dos Almas 4:05
02. Si Te Contara 3:20
03. Melodia Del Rio 2:50
04. Cada Noche Un Amor 3:20
05. Deuda 4:23
06. Uno 4:19
07. Convergencia 3:47
08. Quiereme Mucho 5:12
09. Perfidia 4:08
10. Copla Guajira 3:39
11. Quizas, Quizas 4:03
12. Alma Libre 3:21

musicians
Ibrahim Ferrer - vocals
Roberto Fonseca - piano
Ruben Gonzalez - piano
Omara Portuondo - vocals on track 11
Orlando "Cachaito" Lopez - bass
Ramses Rodriguez - drums
Emilio Del Monte - congas, bongos, maracas
Manuel Galban - electric and acoustic guitars
Joachim Cooder - drums
Roberto Garcia - bongos
Alberto "Virgilio"Valdes - maracas
Chicay - acoustic guitar
Javier Zalbar - clarinets
Anres Goya - maracas
Manuel Mirabal - trumpet
Mirta Baptista - harp
Amadito Valdes - timbales
Arelys Zaldivar - cello
Augusto Diago - violin
Ariel Sarduy - violin
Jose Maron - viola

Produced by Roberto Fonseca, Nick Gold and Ry Cooder


EAC extraction logfile from 10. February 2008, 16:13 for CD
Ibrahim Ferrer / Mi Sueno

Used drive : PLEXTOR CD-R PREMIUM2 Adapter: 1 ID: 1
Read mode : Secure with NO C2, accurate stream, disable cache
Read offset correction : 30
Overread into Lead-In and Lead-Out : No

Used output format : C:\Programmi\FLAC\flac.exe (User Defined Encoder)
32 kBit/s
Additional command line options : -8 -V -T "ARTIST=%a" -T "TITLE=%t" -T "ALBUM=%g" -T "DATE=%y" -T "TRACKNUMBER=%n" -T "GENRE=%m" -T "COMMENT=EAC FLAC -8" %s

Other options :
Fill up missing offset samples with silence : Yes
Delete leading and trailing silent blocks : No
Installed external ASPI interface


Track 1
Filename C:\My Rip\01 - Dos Almas.wav

Pre-gap length 0:00:02.00

Peak level 89.0 %
Track quality 99.9 %
Test CRC 83E1C532
Copy CRC 83E1C532
Copy OK

Track 2
Filename C:\My Rip\02 - Si Te Contara.wav

Peak level 89.0 %
Track quality 100.0 %
Test CRC 22C30B30
Copy CRC 22C30B30
Copy OK

Track 3
Filename C:\My Rip\03 - Melodia Del Rio.wav

Pre-gap length 0:00:01.37

Peak level 89.0 %
Track quality 100.0 %
Test CRC DDB00D1B
Copy CRC DDB00D1B
Copy OK

Track 4
Filename C:\My Rip\04 - Cada Noche Un Amor.wav

Pre-gap length 0:00:00.84

Peak level 89.0 %
Track quality 100.0 %
Test CRC EB7F8F7F
Copy CRC EB7F8F7F
Copy OK

Track 5
Filename C:\My Rip\05 - Deuda.wav

Peak level 89.0 %
Track quality 99.9 %
Test CRC 65246293
Copy CRC 65246293
Copy OK

Track 6
Filename C:\My Rip\06 - Uno.wav

Pre-gap length 0:00:00.28

Peak level 89.0 %
Track quality 100.0 %
Test CRC 6BE31C54
Copy CRC 6BE31C54
Copy OK

Track 7
Filename C:\My Rip\07 - Convergencia.wav

Pre-gap length 0:00:00.68

Peak level 89.0 %
Track quality 100.0 %
Test CRC 93BD3183
Copy CRC 93BD3183
Copy OK

Track 8
Filename C:\My Rip\08 - Quiereme Mucho.wav

Pre-gap length 0:00:01.04

Peak level 89.0 %
Track quality 100.0 %
Test CRC E5667C71
Copy CRC E5667C71
Copy OK

Track 9
Filename C:\My Rip\09 - Perfidia.wav

Pre-gap length 0:00:00.28

Peak level 89.0 %
Track quality 100.0 %
Test CRC 1DF72FB7
Copy CRC 1DF72FB7
Copy OK

Track 10
Filename C:\My Rip\10 - Copla Guajira.wav

Pre-gap length 0:00:01.10

Peak level 89.0 %
Track quality 100.0 %
Test CRC 81BB2D8F
Copy CRC 81BB2D8F
Copy OK

Track 11
Filename C:\My Rip\11 - Quizas, Quizas.wav

Pre-gap length 0:00:02.12

Peak level 89.0 %
Track quality 100.0 %
Test CRC 43C9D717
Copy CRC 43C9D717
Copy OK

Track 12
Filename C:\My Rip\12 - Alma Libre.wav

Pre-gap length 0:00:00.26

Peak level 89.0 %
Track quality 100.0 %
Test CRC E01DB0FE
Copy CRC E01DB0FE
Copy OK

No errors occured


End of status report


––––––––––––––––––––––––––––––––––––––––
Analyzed: Ibrahim Ferrer / Mi Sueno
––––––––––––––––––––––––––––––––––––––––

DR Peak RMS Duration Track
––––––––––––––––––––––––––––––––––––––––
DR9 -1.00 dB -11.88 dB 4:05 01-Dos Almas
DR9 -1.00 dB -11.79 dB 3:21 02-Si Te Contara
DR9 -1.00 dB -11.96 dB 2:50 03-Melodia Del Rio
DR8 -1.00 dB -10.86 dB 3:20 04-Cada Noche Un Amor
DR8 -1.00 dB -10.21 dB 4:24 05-Deuda
DR7 -1.00 dB -10.14 dB 4:20 06-Uno
DR9 -1.00 dB -13.22 dB 3:48 07-Convergencia
DR7 -1.00 dB -10.60 dB 5:13 08-Quiereme Mucho
DR9 -1.00 dB -11.60 dB 4:08 09-Perfidia
DR9 -1.00 dB -11.25 dB 3:39 10-Copla Guajira
DR10 -1.00 dB -15.06 dB 4:03 11-Quizas, Quizas
DR8 -1.00 dB -11.38 dB 3:22 12-Alma Libre
––––––––––––––––––––––––––––––––––––––––

Number of tracks: 12
Official DR value: DR9

Samplerate: 44100 Hz
Channels: 2
Bits per sample: 16
Bitrate: 751 kbps
Codec: FLAC
================================================================================

Ibrahim Ferrer - Mi Sueno (2007)
Ibrahim Ferrer - Mi Sueno (2007)


Thanks to the original ripper