Subcategories

Ian Gillan - Gillan's Inn (2006) {2011, Reissue}

Posted By: popsakov
Ian Gillan - Gillan's Inn (2006) {2011, Reissue}

Ian Gillan - Gillan's Inn (2006) {2011, Reissue}
EAC Rip | WavPack (Img) + Cue + Log ~ 446 Mb | MP3 CBR320 ~ 161 Mb
Scans ~ 105 Mb | 01:02:25 | RAR 5% Recovery
Hard Rock | Ear Music #0207156ERE

At this point in his career, Ian Gillan really has nothing to prove to anyone in the rock world. He's created one of the most successful bands in the history of rock & roll, and has aged with a grace and class few of his contemporaries can rival. So it makes sense that Gillan's Inn is a relaxed affair and offers up a simple set of rock & roll without pretense or a bloated concept. Taking a cue from Santana's latest releases, a nonstop onslaught of guest appearances fills the rooms of Gillan's Inn, including Def Leppard's Joe Elliott, Joe Satriani, Roger Glover, Steve Morse, Jeff Healey, Uli John Roth, Ronnie James Dio, and Goo Goo Dolls pinup boy Johnny Rzeznik. The result is a 14-song session that's as much inoffensive fun as it is straight-ahead blues-tinged rock & roll.

~ Rob Theakston, All Music
Ian Gillan - Gillan's Inn (2006) {2011, Reissue}


***************

Ian Gillan - Gillan's Inn (2006) {2011, Reissue}

Track List:

01. Unchain Your Brain [3:16]
02. Bluesy Blue Sea [4:25]
03. Day Late and a Dollar Short [5:11]
04. Hang Me Out to Dry [3:57]
05. Men of War [4:37]
06. When a Blind Man Cries [4:19]
07. Sugar Plum [4:53]
08. Trashed [4:06]
09. No Worries [4:57]
10. Smoke on the Water [5:47]
11. No Laughing in Heaven [4:31]
12. Speed King [3:47]
13. Loving on Borrowed Time [5:36]
14. I'll Be Your Baby Tonight [3:04]

Exact Audio Copy V1.0 beta 3 from 29. August 2011

EAC extraction logfile from 29. September 2013, 7:46

Ian Gillan / Gillan's Inn

Used drive : HL-DT-STBDDVDRW GBC-H20N Adapter: 1 ID: 0

Read mode : Secure
Utilize accurate stream : Yes
Defeat audio cache : Yes
Make use of C2 pointers : No

Read offset correction : 667
Overread into Lead-In and Lead-Out : No
Fill up missing offset samples with silence : Yes
Delete leading and trailing silent blocks : No
Null samples used in CRC calculations : Yes
Used interface : Native Win32 interface for Win NT & 2000

Used output format : User Defined Encoder
Selected bitrate : 1024 kBit/s
Quality : High
Add ID3 tag : No
Command line compressor : C:\Program Files\Exact Audio Copy\wavpack.exe
Additional command line options : -hm %source% %dest%


TOC of the extracted CD

Track | Start | Length | Start sector | End sector
––––––––––––––––––––––––––––-
1 | 0:00.00 | 3:16.32 | 0 | 14731
2 | 3:16.32 | 4:24.38 | 14732 | 34569
3 | 7:40.70 | 5:11.30 | 34570 | 57924
4 | 12:52.25 | 3:57.30 | 57925 | 75729
5 | 16:49.55 | 4:36.43 | 75730 | 96472
6 | 21:26.23 | 4:19.16 | 96473 | 115913
7 | 25:45.39 | 4:52.61 | 115914 | 137874
8 | 30:38.25 | 4:06.06 | 137875 | 156330
9 | 34:44.31 | 4:56.67 | 156331 | 178597
10 | 39:41.23 | 5:46.42 | 178598 | 204589
11 | 45:27.65 | 4:31.12 | 204590 | 224926
12 | 49:59.02 | 3:46.44 | 224927 | 241920
13 | 53:45.46 | 5:35.70 | 241921 | 267115
14 | 59:21.41 | 3:03.56 | 267116 | 280896


Range status and errors

Selected range

Filename C:\Users\ProgDog\Music\ZALIVKI\Gillan\Gillan's Inn\Ian Gillan - Gillan's Inn.wav

Peak level 100.0 %
Extraction speed 6.2 X
Range quality 99.9 %
Test CRC 5DBF3997
Copy CRC 5DBF3997
Copy OK

No errors occurred


AccurateRip summary

Track 1 accurately ripped (confidence 2) [AAEEDBD1] (AR v2)
Track 2 accurately ripped (confidence 2) [5FE646F1] (AR v2)
Track 3 accurately ripped (confidence 2) [056D7D48] (AR v2)
Track 4 accurately ripped (confidence 2) [54F4CA42] (AR v2)
Track 5 accurately ripped (confidence 2) [66B6314A] (AR v2)
Track 6 accurately ripped (confidence 2) [C1580C88] (AR v2)
Track 7 accurately ripped (confidence 2) [EF297AD0] (AR v2)
Track 8 accurately ripped (confidence 2) [38E82332] (AR v2)
Track 9 accurately ripped (confidence 2) [F212E730] (AR v2)
Track 10 accurately ripped (confidence 2) [648AA641] (AR v2)
Track 11 accurately ripped (confidence 2) [2716F110] (AR v2)
Track 12 accurately ripped (confidence 2) [F8CDE3B7] (AR v2)
Track 13 accurately ripped (confidence 2) [666442D4] (AR v2)
Track 14 accurately ripped (confidence 2) [8A4C9B1C] (AR v2)

All tracks accurately ripped

End of status report

–– CUETools DB Plugin V2.1.3

[CTDB TOCID: OjZYgzbKWqokPDp4NvH0npY1q5k-] disk not present in database, Submit result: OjZYgzbKWqokPDp4NvH0npY1q5k- has been uploaded


==== Log checksum 567E3462645F9414A735FC28DAA80A2A5AF24001CAABE40D74B0FDA2DDD5E02E ====

[CUETools log; Date: 06.06.2017 22:21:07; Version: 2.1.5]
[CTDB TOCID: OjZYgzbKWqokPDp4NvH0npY1q5k-] found.
Track | CTDB Status
1 | (9/9) Accurately ripped
2 | (9/9) Accurately ripped
3 | (9/9) Accurately ripped
4 | (9/9) Accurately ripped
5 | (9/9) Accurately ripped
6 | (9/9) Accurately ripped
7 | (9/9) Accurately ripped
8 | (9/9) Accurately ripped
9 | (9/9) Accurately ripped
10 | (9/9) Accurately ripped
11 | (9/9) Accurately ripped
12 | (9/9) Accurately ripped
13 | (9/9) Accurately ripped
14 | (9/9) Accurately ripped
[AccurateRip ID: 001fdaaf-0156fa4a-bd0ea10e] found.
Track [ CRC | V2 ] Status
01 [cedaa846|aaeedbd1] (0+6/6) Accurately ripped
02 [172e4e66|5fe646f1] (0+6/6) Accurately ripped
03 [04e4fb14|056d7d48] (0+6/6) Accurately ripped
04 [c297080d|54f4ca42] (0+6/6) Accurately ripped
05 [d737609f|66b6314a] (0+6/6) Accurately ripped
06 [6d4e700d|c1580c88] (0+6/6) Accurately ripped
07 [7bb4b6f6|ef297ad0] (0+6/6) Accurately ripped
08 [d660d628|38e82332] (0+6/6) Accurately ripped
09 [77ea3908|f212e730] (0+6/6) Accurately ripped
10 [7e7a1d2f|648aa641] (0+6/6) Accurately ripped
11 [3807fcab|2716f110] (0+6/6) Accurately ripped
12 [8e76fc6e|f8cde3b7] (0+6/6) Accurately ripped
13 [e65e018b|666442d4] (0+6/6) Accurately ripped
14 [52b0c95e|8a4c9b1c] (0+6/6) Accurately ripped

Track Peak [ CRC32 ] [W/O NULL] [ LOG ]
– 99,9 [5DBF3997] [E7F32621] CRC32
01 80,5 [3032F6AD] [891508B7]
02 86,2 [DE4D6431] [E8F1C7DD]
03 77,8 [F98438FD] [B92B8CE4]
04 83,3 [FF5C013D] [6D2AD7B0]
05 79,0 [04CCD34A] [0028170B]
06 93,4 [041DFFCA] [F9D847DA]
07 79,5 [54F53D02] [C409DE4A]
08 87,5 [10F526CA] [812FF3C2]
09 99,9 [AB9C6227] [559428DC]
10 88,0 [FA67F289] [E2A0CF4A]
11 80,4 [D3DC88E0] [DFB73E9B]
12 73,3 [D43CF89C] [F57C1A7E]
13 96,0 [E547244A] [F76CB0CC]
14 97,2 [10879DAC] [2D6E1E63]

Ian Gillan - Gillan's Inn (2006) {2011, Reissue}


All thanks go to TrigAD's

>>> Ian Gillan in my Blog <<<

DOWNLOAD: