Subcategories

Howlin' Wolf - Howlin' Wolf Rides Again (1991)

Posted By: popsakov
Howlin' Wolf - Howlin' Wolf Rides Again (1991)

Howlin' Wolf - Howlin' Wolf Rides Again (1991)
EAC Rip | WavPack (Img) + Cue + Log ~ 226 Mb | MP3 CBR320 ~ 130 Mb
Full Scans ~ 94 Mb | 00:53:26 | RAR 5% Recovery
Blues, Chicago Blues | Ace Records #CDCHD 333

While both Bear Family sets deal with a largely unissued wealth of material, this collection is devoted in the main to all the Memphis recordings from 1951 and 1952 that saw the light of day on a number of Los Angeles-based labels owned by the Bihari Brothers, being issued and reissued and reissued again on a plethora of $1.98 budget albums. Featuring recordings done in Sam Phillips' Memphis Recording Service and surreptitious sessions recorded by a young Ike Turner in makeshift studios, these 18 sides are the missing piece of the puzzle in absorbing Wolf's early pre-Chess period. It also helps that this just happens to be some of the nastiest sounding blues ever recorded. With no tracks being duplicated from the two Bear Family Memphis Days volumes, and sonics far surpassing all previous issues of this material (every last one of them horribly marred by an annoying 60 cycle hum), this is an essential part of any Wolf collection. Alternate-take freaks will revel in the inclusion of two extra takes of "Riding in the Moonlight" from an earlier and different session than the issued version also included. While not quite as essential as his first two Chess albums (and if you were making a judgement call on just passionate performances alone, even that would be debatable), this is definitely the next stop along the way in absorbing the raw genius of Howlin' Wolf.

~ Cub Koda, All Music

***************

Howlin' Wolf - Howlin' Wolf Rides Again (1991)

Howlin' Wolf - Howlin' Wolf Rides Again (1991)

Track List:

01. House Rockin' Boogie [4:16]
02. Crying At Daybreak [3:55]
03. Keep What You Got [2:24]
04. Dog Me Around [2:48]
05. Morning At Midnight Aka Moaning At Midnight [2:44]
06. Riding In The Moonlight [3:06]
07. Chocolate Drop (Brown Skin Woman) [2:44]
08. My Baby Stole Off [3:04]
09. I Want Your Picture [2:53]
10. Passing By Blues [2:45]
11. Worried About My Baby [3:02]
12. Chocolate Drop (Brown Skin Woman) (Alt) [2:46]
13. Driving This Highway [2:53]
14. The Sun Is Rising [2:41]
15. Riding In The Moonlight (Audition Acetate) [2:40]
16. My Friends [3:01]
17. I'm The Wolf [3:07]
18. Riding In The Moonlight (Audition Acetate) [2:37]

Exact Audio Copy V1.0 beta 3 from 29. August 2011

EAC extraction logfile from 21. January 2013, 15:22

Howlin' Wolf / Howling Wolf Rides Again

Used drive : HL-DT-STBDDVDRW GBC-H20N Adapter: 1 ID: 0

Read mode : Burst

Read offset correction : 667
Overread into Lead-In and Lead-Out : No
Fill up missing offset samples with silence : Yes
Delete leading and trailing silent blocks : No
Null samples used in CRC calculations : Yes
Used interface : Native Win32 interface for Win NT & 2000

Used output format : User Defined Encoder
Selected bitrate : 1024 kBit/s
Quality : High
Add ID3 tag : No
Command line compressor : C:\Program Files\Exact Audio Copy\wavpack.exe
Additional command line options : -hm %source% %dest%


TOC of the extracted CD

Track | Start | Length | Start sector | End sector
––––––––––––––––––––––––––––-
1 | 0:00.00 | 4:15.60 | 0 | 19184
2 | 4:15.60 | 3:55.03 | 19185 | 36812
3 | 8:10.63 | 2:24.37 | 36813 | 47649
4 | 10:35.25 | 2:47.53 | 47650 | 60227
5 | 13:23.03 | 2:43.72 | 60228 | 72524
6 | 16:07.00 | 3:06.35 | 72525 | 86509
7 | 19:13.35 | 2:43.48 | 86510 | 98782
8 | 21:57.08 | 3:03.52 | 98783 | 112559
9 | 25:00.60 | 2:52.58 | 112560 | 125517
10 | 27:53.43 | 2:44.50 | 125518 | 137867
11 | 30:38.18 | 3:02.37 | 137868 | 151554
12 | 33:40.55 | 2:45.58 | 151555 | 163987
13 | 36:26.38 | 2:53.25 | 163988 | 176987
14 | 39:19.63 | 2:41.30 | 176988 | 189092
15 | 42:01.18 | 2:39.70 | 189093 | 201087
16 | 44:41.13 | 3:01.10 | 201088 | 214672
17 | 47:42.23 | 3:06.57 | 214673 | 228679
18 | 50:49.05 | 2:36.43 | 228680 | 240422


Range status and errors

Selected range

Filename C:\Users\ProgDog\Music\ZALIVKI\BLUES\Howling Woolf\Rides Again\Howlin' Wolf - Howling Wolf Rides Again.wav

Timing problem 0:26:57

Peak level 95.1 %
Extraction speed 21.7 X
Test CRC 61F9BA0B
Copy CRC 66029D53
Copy finished

No errors occurred


AccurateRip summary

Track 1 cannot be verified as accurate (confidence 1) [5DAA4093], AccurateRip returned [683B849A] (AR v2)
Track 2 cannot be verified as accurate (confidence 1) [604EB010], AccurateRip returned [0BF35C1E] (AR v2)
Track 3 cannot be verified as accurate (confidence 1) [A9BBC4E1], AccurateRip returned [892DFAD9] (AR v2)
Track 4 cannot be verified as accurate (confidence 1) [C99256CF], AccurateRip returned [2C34150A] (AR v2)
Track 5 cannot be verified as accurate (confidence 1) [16CD329C], AccurateRip returned [20FC636B] (AR v2)
Track 6 cannot be verified as accurate (confidence 1) [893091C3], AccurateRip returned [C5E63BB0] (AR v2)
Track 7 cannot be verified as accurate (confidence 1) [43616824], AccurateRip returned [EE374319] (AR v2)
Track 8 cannot be verified as accurate (confidence 1) [6CF65B65], AccurateRip returned [CBF937FC] (AR v2)
Track 9 cannot be verified as accurate (confidence 1) [EF07325F], AccurateRip returned [50D6105C] (AR v2)
Track 10 cannot be verified as accurate (confidence 1) [52AC23C7], AccurateRip returned [D99CC59D] (AR v2)
Track 11 cannot be verified as accurate (confidence 1) [1586B0B1], AccurateRip returned [A2A8DB9A] (AR v2)
Track 12 cannot be verified as accurate (confidence 1) [7A4BFDCD], AccurateRip returned [62A13CAD] (AR v2)
Track 13 cannot be verified as accurate (confidence 1) [428B0B36], AccurateRip returned [1D280A00] (AR v2)
Track 14 cannot be verified as accurate (confidence 1) [65D2325F], AccurateRip returned [F92804F3] (AR v2)
Track 15 cannot be verified as accurate (confidence 1) [B2EFA8CE], AccurateRip returned [3AFF7476] (AR v2)
Track 16 cannot be verified as accurate (confidence 1) [9A9578B7], AccurateRip returned [82BF2348] (AR v2)
Track 17 cannot be verified as accurate (confidence 1) [87A13C7F], AccurateRip returned [325CB8AD] (AR v2)
Track 18 cannot be verified as accurate (confidence 1) [2E631590], AccurateRip returned [29F307DB] (AR v2)

No tracks could be verified as accurate
You may have a different pressing from the one(s) in the database

End of status report

–– CUETools DB Plugin V2.1.3

[CTDB TOCID: JjQxMe._XYLQ_M8cFQVah1LwmG8-] found, Submit result: insufficient quality
[45e6f9e3] (2/2) No match


==== Log checksum A39BDF1C3490D4EEDC80999D484BD7830F9C7C242AE40054EB7E298011A1816E ====

[CUETools log; Date: 06.06.2017 23:58:27; Version: 2.1.5]
[CTDB TOCID: JjQxMe._XYLQ_M8cFQVah1LwmG8-] found.
Track | CTDB Status
1 | (0/2) No match
2 | (0/2) No match
3 | (0/2) No match
4 | (0/2) No match
5 | (0/2) No match
6 | (0/2) No match
7 | (0/2) No match
8 | (0/2) No match
9 | (0/2) No match
10 | (0/2) No match
11 | (0/2) No match
12 | (0/2) No match
13 | (0/2) No match
14 | (0/2) No match
15 | (0/2) No match
16 | (0/2) No match
17 | (2/2) Accurately ripped
18 | (2/2) Accurately ripped
[AccurateRip ID: 002412e0-01da1f9f-f70c8512] found.
Track [ CRC | V2 ] Status
01 [94e9a73a|5daa4093] (0+0/2) No match
02 [deceeb1b|604eb010] (0+0/2) No match
03 [b9f70730|a9bbc4e1] (0+0/2) No match
04 [96a8fd28|c99256cf] (0+0/2) No match
05 [0440e65a|16cd329c] (0+0/2) No match
06 [c0adfca5|893091c3] (0+0/2) No match
07 [59b1b9b4|43616824] (0+0/2) No match
08 [19d0ec9d|6cf65b65] (0+0/2) No match
09 [7da34aa6|ef07325f] (0+0/2) No match
10 [ceb27a16|52ac23c7] (0+0/2) No match
11 [5c67ac18|1586b0b1] (0+0/2) No match
12 [3d4a06e1|7a4bfdcd] (0+0/2) No match
13 [7a7bf2b8|428b0b36] (0+0/2) No match
14 [a29f4572|65d2325f] (0+0/2) No match
15 [aa716e8c|b2efa8ce] (0+0/3) No match
16 [c9f423c2|9a9578b7] (0+0/2) No match
17 [089d9b2d|87a13c7f] (0+0/2) No match
18 [5810270b|2e631590] (0+0/2) No match
Offsetted by -192:
01 [658d76ba] (0/2) No match (V2 was not tested)
02 [f917209b] (0/2) No match (V2 was not tested)
03 [da7cf2f0] (0/2) No match (V2 was not tested)
04 [d4c52f68] (0/2) No match (V2 was not tested)
05 [9a6a175a] (0/2) No match (V2 was not tested)
06 [c0a657a5] (0/2) No match (V2 was not tested)
07 [a2c71e34] (0/2) No match (V2 was not tested)
08 [ebadafdd] (0/2) No match (V2 was not tested)
09 [0400bd26] (0/2) No match (V2 was not tested)
10 [4c2d0a96] (0/2) No match (V2 was not tested)
11 [b4d7b318] (0/2) No match (V2 was not tested)
12 [7b430c61] (0/2) No match (V2 was not tested)
13 [6d5f65b8] (0/2) No match (V2 was not tested)
14 [8cebc732] (0/2) No match (V2 was not tested)
15 [7a78454c] (0/3) No match (V2 was not tested)
16 [d929c042] (0/2) No match (V2 was not tested)
17 [af9a112d] (0/2) No match (V2 was not tested)
18 [9f9baa4b] (0/2) No match (V2 was not tested)

Track Peak [ CRC32 ] [W/O NULL] [ LOG ]
– 95,1 [66029D53] [98C51577] CRC32
01 75,6 [9E557610] [DBBBB45C]
02 95,1 [8E785E74] [FC1E93CB]
03 80,1 [F6CF280E] [00A76BA2]
04 79,4 [93D83708] [C3952D6B]
05 91,1 [555BE233] [D7DD0254]
06 84,5 [3B09FEEF] [7FBEE705]
07 78,2 [50BBECE4] [60CFD79D]
08 87,0 [42FBE0D3] [55406D5B]
09 71,3 [82233BDC] [0730C3D3]
10 70,4 [D422CCFC] [49F26303]
11 87,6 [E54E1FF3] [3411F335]
12 85,1 [879E49A4] [46174E0D]
13 83,6 [FBF1D9FA] [3714052E]
14 90,4 [66236AC9] [DABC3300]
15 87,7 [2FB92800] [C330D3AA]
16 86,7 [F3420829] [C338837B]
17 89,5 [B8700B51] [39DCC269]
18 93,0 [055C39EE] [C445CCEE]

Howlin' Wolf - Howlin' Wolf Rides Again (1991)


All thanks go to AD's

>>> Howlin' Wolf in my Blog <<<

DOWNLOAD: