Subcategories
Tags
Language
Tags

Henrik Freischlader Band - Get Closer (2007) Repost

Posted By: v3122
Henrik Freischlader Band - Get Closer (2007) Repost

Henrik Freischlader Band - Get Closer (2007)
EAC | Flac(Image) + Cue + Log & MP3 CBR 320Kbps
ZYX Music, PEC 2019-2 | ~ 405 or 138 Mb | Scans(jpg) -> 43 Mb
Blues Rock

Second album form HFB, a young trio that will revolutionize the blues in this country (and beyond). Awe-inspiring songwriting and performance (lyrics are re-printed). Compared to their debut album the band has developed a style of its own. The influence of guitar slingers like SRV is still evident, but not commanding any more. Recommended. HENRIK FREISCHLADER - gtr/voc, OLIVER SCHMELLENKAMP - bass, DIRK SENGOTTA - drums.

~ amazon
Henrik Freischlader Band - Get Closer (2007) Repost


Henrik Freischlader Band - Get Closer (2007):

Henrik Freischlader Band - Get Closer (2007) Repost

Tracklist:

01. Someone Like Me - 4:41
02. You - 2:56
03. Too Cool For Me - 4:46
04. Keep Playin' - 4:15
05. I Give Up On Loving You - 4:43
06. She's Back (For Another Try) - 9:40
07. Sometimes - 3:42
08. As Long As - 4:12
09. Not Of That Kind - 4:10
10. Blues Music - 3:26
11. Busy - 3:27
12. Livin' It Up - 2:56
13. Get Closer - 4:14

Exact Audio Copy V1.0 beta 3 from 29. August 2011

EAC extraction logfile from 23. January 2014, 1:12

Henrik Freischlader Band / Get Closer

Used drive : ATAPI iHAS124 B Adapter: 2 ID: 0

Read mode : Secure
Utilize accurate stream : Yes
Defeat audio cache : Yes
Make use of C2 pointers : No

Read offset correction : 6
Overread into Lead-In and Lead-Out : No
Fill up missing offset samples with silence : Yes
Delete leading and trailing silent blocks : No
Null samples used in CRC calculations : Yes
Used interface : Native Win32 interface for Win NT & 2000

Used output format : User Defined Encoder
Selected bitrate : 1024 kBit/s
Quality : High
Add ID3 tag : No
Command line compressor : C:\Program Files (x86)\Exact Audio Copy\FLAC\FLAC.EXE
Additional command line options : -V -8 -T "Date=%year%" -T "Genre=%genre%" %source%


TOC of the extracted CD

Track | Start | Length | Start sector | End sector
––––––––––––––––––––––––––––-
1 | 0:00.00 | 4:41.00 | 0 | 21074
2 | 4:41.00 | 2:55.62 | 21075 | 34261
3 | 7:36.62 | 4:46.14 | 34262 | 55725
4 | 12:23.01 | 4:14.74 | 55726 | 74849
5 | 16:38.00 | 4:43.21 | 74850 | 96095
6 | 21:21.21 | 9:40.31 | 96096 | 139626
7 | 31:01.52 | 3:41.45 | 139627 | 156246
8 | 34:43.22 | 4:11.73 | 156247 | 175144
9 | 38:55.20 | 4:09.53 | 175145 | 193872
10 | 43:04.73 | 3:25.50 | 193873 | 209297
11 | 46:30.48 | 3:27.11 | 209298 | 224833
12 | 49:57.59 | 2:55.73 | 224834 | 238031
13 | 52:53.57 | 4:13.65 | 238032 | 257071


Range status and errors

Selected range

Filename G:\CD\Henrik Freischlader Band - Get Closer.wav

Peak level 98.9 %
Extraction speed 5.8 X
Range quality 100.0 %
Test CRC 7BE8925D
Copy CRC 7BE8925D
Copy OK

No errors occurred


AccurateRip summary

Track 1 accurately ripped (confidence 9) [FD851235] (AR v2)
Track 2 accurately ripped (confidence 9) [7BAB4CBB] (AR v2)
Track 3 accurately ripped (confidence 9) [75AEF432] (AR v2)
Track 4 accurately ripped (confidence 9) [C224E0E6] (AR v2)
Track 5 accurately ripped (confidence 9) [5BA25F3F] (AR v2)
Track 6 accurately ripped (confidence 9) [22FA8570] (AR v2)
Track 7 accurately ripped (confidence 9) [072E8A56] (AR v2)
Track 8 accurately ripped (confidence 9) [34243502] (AR v2)
Track 9 accurately ripped (confidence 9) [D5F53500] (AR v2)
Track 10 accurately ripped (confidence 9) [679FFFBA] (AR v2)
Track 11 accurately ripped (confidence 9) [6BA6A27B] (AR v2)
Track 12 accurately ripped (confidence 9) [D893CF49] (AR v2)
Track 13 accurately ripped (confidence 9) [605BF249] (AR v2)

All tracks accurately ripped

End of status report

==== Log checksum B1149556010B5C1EF6689782E61B1DD8452A9F7263D89F3C0C9C07892ECA1C60 ====


[CUETools log; Date: 08.10.2017 0:36:07; Version: 2.1.5]
[AccurateRip ID: 001ca0a9-011e2cd9-c50d630d] found.
Track [ CRC | V2 ] Status
01 [9f2818c2|fd851235] (05+15/43) Accurately ripped
02 [87db8270|7bab4cbb] (05+15/43) Accurately ripped
03 [32205a3c|75aef432] (05+15/43) Accurately ripped
04 [3b26fb25|c224e0e6] (05+15/43) Accurately ripped
05 [1d72f7bd|5ba25f3f] (05+15/42) Accurately ripped
06 [bb56d1a5|22fa8570] (05+15/42) Accurately ripped
07 [cf5cc028|072e8a56] (05+15/43) Accurately ripped
08 [a1e933d7|34243502] (05+15/43) Accurately ripped
09 [5a62c90e|d5f53500] (05+15/43) Accurately ripped
10 [5139ffc5|679fffba] (05+15/42) Accurately ripped
11 [6299912a|6ba6a27b] (05+15/42) Accurately ripped
12 [32596125|d893cf49] (05+15/42) Accurately ripped
13 [74dc4afc|605bf249] (05+15/42) Accurately ripped
Offsetted by 682:
01 [8cadedbf] (13/43) Accurately ripped
02 [88a1ef24] (13/43) Accurately ripped
03 [870b717e] (13/43) Accurately ripped
04 [471fc3d9] (13/43) Accurately ripped
05 [b2679683] (12/42) Accurately ripped
06 [f5da27e1] (12/42) Accurately ripped
07 [2db0d70e] (13/43) Accurately ripped
08 [d5fcd897] (13/43) Accurately ripped
09 [7304c8f0] (13/43) Accurately ripped
10 [5fbc4f7b] (13/42) Accurately ripped
11 [3ac0dda2] (13/42) Accurately ripped
12 [d19385af] (12/42) Accurately ripped
13 [fb3f33ac] (12/42) Accurately ripped
Offsetted by 664:
01 [3e0ab2dd] (00/43) No match (V2 was not tested)
02 [c32b5620] (00/43) No match (V2 was not tested)
03 [6906bd74] (00/43) No match (V2 was not tested)
04 [2ec8ded5] (00/43) No match (V2 was not tested)
05 [094fdd65] (00/42) No match (V2 was not tested)
06 [0f559035] (00/42) No match (V2 was not tested)
07 [be584950] (00/43) No match (V2 was not tested)
08 [a19038d7] (00/43) No match (V2 was not tested)
09 [b16e1dc6] (00/43) No match (V2 was not tested)
10 [e43b7fad] (00/42) No match (V2 was not tested)
11 [a5a88e4a] (00/42) No match (V2 was not tested)
12 [4cff983d] (00/42) No match (V2 was not tested)
13 [e34bbb80] (00/42) No match (V2 was not tested)

Track Peak [ CRC32 ] [W/O NULL] [ LOG ]
– 98,9 [7BE8925D] [212AE55A] CRC32
01 98,9 [E806F958] [AA5B79F3]
02 98,8 [61DD694F] [C144FD7F]
03 98,8 [70E306A4] [4BC7A845]
04 98,9 [27F4DBA2] [B7160128]
05 98,9 [B9F22CD6] [A1787F66]
06 98,9 [7040B364] [9623A889]
07 98,8 [A5434BE8] [B7031149]
08 98,9 [125303C6] [C11B3582]
09 98,9 [130CB4D0] [18FC3B02]
10 98,9 [E76EE4FA] [93EDC0C3]
11 98,8 [D3A5B492] [33DC4C9F]
12 98,9 [7F9F5E9B] [7BE1E712]
13 98,8 [3EF7F8CA] [CE5428FA]


Henrik Freischlader Band - Get Closer (2007) Repost

All thanks go to the original releaser

Henrik Freischlader or Henrik Freischlader in my Blog

Download Henrik Freischlader Band - Get Closer (2007):