Subcategories

Guardians Of Time - Tearing Up The World (2018) Digipak

Posted By: Andi_Deris
Guardians Of Time - Tearing Up The World (2018) Digipak

Guardians Of Time - Tearing Up The World (2018) Digipak
EAC Rip | FLAC: Image+Cue+Log | MP3 CBR 320 kbps | Scans
356 Mb | 104 Mb | 32 Mb | Time: 44:27
Rock of Angels Records | ROAR1814DIGI
Heavy/Power Metal

Guardians Of Time is considered as one of the leading heavy/power metal bands in Norway, with members holding experience from other bands such as Trail Of Tears, Susperia and Harm. Focusing on in-your-face heavy metal and live performances filled with power and energy, the band is always keen on giving their audience what they want; a heavy metal party! Fast forward to 2018, their fifth album “Tearing up the World” is now done, mixed and mastered in cooperation with Studio Fredman. The album also features guest performances of Abbath and Tim ”Ripper” Owens and is set for release through ROAR!

Guardians Of Time - Tearing Up The World (2018) Digipak




Track Listing

01. Tearing Up The World (03:46)
02. Raise The Eagle (05:13)
03. We'll Bring War (03:57)
04. The Burning Of Rome (04:03)
05. Kingdom Come (02:58)
06. Valhalla Awaits (04:25)
07. Brothers Of The North (04:09)
08. Light Won't Shine (03:04)
09. As I Burn (04:22)
10. Drawn In Blood (03:23)
11. Masters We Were (05:06)

Produced by Guardians Of Time

The Band

• Bernt Fjellestad - Vocals
• Paul Olsen - Guitars
• Jonkis Werdal - Bass
• Jan Willy Aaraas - Drums

*****
• Abbath - Vocals (track 1)
• Tim "Ripper" Owens - Vocals (track 9)

Exact Audio Copy V1.3 from 2. September 2016

EAC extraction logfile from 21. October 2018, 0:19

Guardians Of Time / Tearing Up The World

Used drive : ATAPI iHAS122 W Adapter: 2 ID: 0

Read mode : Secure
Utilize accurate stream : Yes
Defeat audio cache : Yes
Make use of C2 pointers : No

Read offset correction : 48
Overread into Lead-In and Lead-Out : No
Fill up missing offset samples with silence : Yes
Delete leading and trailing silent blocks : No
Null samples used in CRC calculations : Yes
Used interface : Installed external ASPI interface

Used output format : User Defined Encoder
Selected bitrate : 1024 kBit/s
Quality : High
Add ID3 tag : No
Command line compressor : C:\Program Files\FLAC\flac.exe
Additional command line options : -V -8 -T "Date=%year%" -T "Genre=%genre%" -T"COMMENT=Ripped by Ilijan" -8 -V %source%


TOC of the extracted CD

Track | Start | Length | Start sector | End sector
––––––––––––––––––––––––––––-
1 | 0:00.00 | 3:46.09 | 0 | 16958
2 | 3:46.09 | 5:12.73 | 16959 | 40431
3 | 8:59.07 | 3:56.69 | 40432 | 58200
4 | 12:56.01 | 4:03.12 | 58201 | 76437
5 | 16:59.13 | 2:57.72 | 76438 | 89784
6 | 19:57.10 | 4:25.01 | 89785 | 109660
7 | 24:22.11 | 4:09.18 | 109661 | 128353
8 | 28:31.29 | 3:04.19 | 128354 | 142172
9 | 31:35.48 | 4:21.50 | 142173 | 161797
10 | 35:57.23 | 3:22.40 | 161798 | 176987
11 | 39:19.63 | 5:05.71 | 176988 | 199933


Range status and errors

Selected range

Filename D:\Guardians Of Time - Tearing Up The World.wav

Peak level 95.2 %
Extraction speed 3.7 X
Range quality 100.0 %
Test CRC 0DCCF717
Copy CRC 0DCCF717
Copy OK

No errors occurred


AccurateRip summary

Track 1 not present in database
Track 2 not present in database
Track 3 not present in database
Track 4 not present in database
Track 5 not present in database
Track 6 not present in database
Track 7 not present in database
Track 8 not present in database
Track 9 not present in database
Track 10 not present in database
Track 11 not present in database

None of the tracks are present in the AccurateRip database

End of status report

–– CUETools DB Plugin V2.1.6

[CTDB TOCID: Uf8WEq5uGBDtJELk.hdf_jHZdrM-] disk not present in database
Submit result: Uf8WEq5uGBDtJELk.hdf_jHZdrM- has been uploaded


==== Log checksum 3F709C69295BBF629BD28E65DC2706745242F6239877FC7F8091B223547A1458 ====


Many thanks to the original uploader: Ilijan



Password: pass