Subcategories

Gregorian - Masters Of Chant Chapter II (2001) [Japanese Edition]

Posted By: gribovar
Gregorian - Masters Of Chant Chapter II (2001) [Japanese Edition]

Gregorian - Masters Of Chant Chapter II (2001) [Japanese Edition]
EAC Rip | FLAC (tracks+.cue+log) - 488 MB | MP3 CBR 320 kbps (LAME 3.93) - 170 MB | Covers - 229 MB
Genre: New Age, Ambientpop | RAR 3% Rec. | Label: Networks Records (NXCB-00030)

One of the most successful pop/classical fusion projects, Gregorian mixes well-known pop and rock songs with Gregorian chants. Overseen by producer Frank Peterson, co-founder of Michael Cretu's Enigma outfit, Gregorian's first album, Masters of Chant, released in 1999 (an early 1991 Peterson album released under the name Gregorian isn't counted among the group's official releases, but already employs the same aesthetic), became a smash hit throughout Europe, entering the Top Ten in nine different countries. The following albums continued in the same vein, covering songs by Peter Gabriel, Lenny Kravitz, Coldplay, Björk, Queen, Tears for Fears, and others.
Tracklist:
01. Moment of Peace
02. The First Time Ever I Saw Your Face
03. In The Air Tonight
04. Bonny Portmore
05. Hymn
06. Child In Time
07. Everybody Gotta Learn Sometimes
08. Wish You Were Here
09. Lady D`Arbanville
10. Heaven Can Wait
11. Babylon
12. Stairway To Heaven
13. Breathe (Bonus track)
14. Make Us One (Bonus track)

Total time: 01:12:30

Exact Audio Copy V1.0 beta 3 from 29. August 2011

EAC extraction logfile from 19. May 2012, 19:23

Gregorian / Masters Of Chant Chapter II

Used drive : PLEXTOR DVDR PX-760A Adapter: 0 ID: 1

Read mode : Secure
Utilize accurate stream : Yes
Defeat audio cache : Yes
Make use of C2 pointers : No

Read offset correction : 30
Overread into Lead-In and Lead-Out : No
Fill up missing offset samples with silence : Yes
Delete leading and trailing silent blocks : No
Null samples used in CRC calculations : Yes
Used interface : Native Win32 interface for Win NT & 2000
Gap handling : Appended to previous track

Used output format : User Defined Encoder
Selected bitrate : 1024 kBit/s
Quality : High
Add ID3 tag : No
Command line compressor : C:\Program Files (x86)\Exact Audio Copy\Flac\flac.exe
Additional command line options : -8 -V -T "ARTIST=%artist%" -T "TITLE=%title%" -T "ALBUM=%albumtitle%" -T "DATE=%year%" -T "TRACKNUMBER=%tracknr%" -T "GENRE=%genre%" -T "COMMENT=ripped by DrStandBy" %source%


TOC of the extracted CD

Track | Start | Length | Start sector | End sector
––––––––––––––––––––––––––––-
1 | 0:00.00 | 4:23.15 | 0 | 19739
2 | 4:23.15 | 6:00.09 | 19740 | 46748
3 | 10:23.24 | 5:44.52 | 46749 | 72600
4 | 16:08.01 | 5:02.17 | 72601 | 95267
5 | 21:10.18 | 6:06.49 | 95268 | 122766
6 | 27:16.67 | 5:20.08 | 122767 | 146774
7 | 32:37.00 | 5:18.47 | 146775 | 170671
8 | 37:55.47 | 5:32.14 | 170672 | 195585
9 | 43:27.61 | 4:46.04 | 195586 | 217039
10 | 48:13.65 | 5:52.42 | 217040 | 243481
11 | 54:06.32 | 3:04.65 | 243482 | 257346
12 | 57:11.22 | 8:11.45 | 257347 | 294216
13 | 65:22.67 | 3:53.43 | 294217 | 311734
14 | 69:16.35 | 3:13.67 | 311735 | 326276


Track 1

Filename E:\Gregorian\Japan\2001 - Masters Of Chant Chapter II (NXCB-00030)\01. Gregorian - Moment of Peace.wav

Pre-gap length 0:00:02.00

Peak level 98.0 %
Extraction speed 2.2 X
Track quality 100.0 %
Test CRC C0801C7D
Copy CRC C0801C7D
Track not present in AccurateRip database
Copy OK

Track 2

Filename E:\Gregorian\Japan\2001 - Masters Of Chant Chapter II (NXCB-00030)\02. Gregorian - The First Time Ever I Saw Your Face.wav

Peak level 100.0 %
Extraction speed 2.2 X
Track quality 100.0 %
Test CRC 3A8629BD
Copy CRC 3A8629BD
Track not present in AccurateRip database
Copy OK

Track 3

Filename E:\Gregorian\Japan\2001 - Masters Of Chant Chapter II (NXCB-00030)\03. Gregorian - In The Air Tonight.wav

Peak level 100.0 %
Extraction speed 2.2 X
Track quality 100.0 %
Test CRC 9E8754B2
Copy CRC 9E8754B2
Track not present in AccurateRip database
Copy OK

Track 4

Filename E:\Gregorian\Japan\2001 - Masters Of Chant Chapter II (NXCB-00030)\04. Gregorian - Bonny Portmore.wav

Peak level 84.3 %
Extraction speed 2.2 X
Track quality 100.0 %
Test CRC 99B94D52
Copy CRC 99B94D52
Track not present in AccurateRip database
Copy OK

Track 5

Filename E:\Gregorian\Japan\2001 - Masters Of Chant Chapter II (NXCB-00030)\05. Gregorian - Hymn.wav

Peak level 100.0 %
Extraction speed 2.2 X
Track quality 100.0 %
Test CRC 0F4ABCF8
Copy CRC 0F4ABCF8
Track not present in AccurateRip database
Copy OK

Track 6

Filename E:\Gregorian\Japan\2001 - Masters Of Chant Chapter II (NXCB-00030)\06. Gregorian - Child In Time.wav

Peak level 100.0 %
Extraction speed 2.2 X
Track quality 100.0 %
Test CRC E9A5F382
Copy CRC E9A5F382
Track not present in AccurateRip database
Copy OK

Track 7

Filename E:\Gregorian\Japan\2001 - Masters Of Chant Chapter II (NXCB-00030)\07. Gregorian - Everybody Gotta Learn Sometimes.wav

Peak level 100.0 %
Extraction speed 2.2 X
Track quality 100.0 %
Test CRC 77C4E296
Copy CRC 77C4E296
Track not present in AccurateRip database
Copy OK

Track 8

Filename E:\Gregorian\Japan\2001 - Masters Of Chant Chapter II (NXCB-00030)\08. Gregorian - Wish You Were Here.wav

Peak level 99.9 %
Extraction speed 2.2 X
Track quality 100.0 %
Test CRC 578A2052
Copy CRC 578A2052
Track not present in AccurateRip database
Copy OK

Track 9

Filename E:\Gregorian\Japan\2001 - Masters Of Chant Chapter II (NXCB-00030)\09. Gregorian - Lady D`Arbanville.wav

Peak level 100.0 %
Extraction speed 2.2 X
Track quality 100.0 %
Test CRC A95152D2
Copy CRC A95152D2
Track not present in AccurateRip database
Copy OK

Track 10

Filename E:\Gregorian\Japan\2001 - Masters Of Chant Chapter II (NXCB-00030)\10. Gregorian - Heaven Can Wait.wav

Peak level 100.0 %
Extraction speed 1.7 X
Track quality 99.9 %
Test CRC F81029DC
Copy CRC F81029DC
Track not present in AccurateRip database
Copy OK

Track 11

Filename E:\Gregorian\Japan\2001 - Masters Of Chant Chapter II (NXCB-00030)\11. Gregorian - Babylon.wav

Peak level 99.7 %
Extraction speed 2.1 X
Track quality 100.0 %
Test CRC 9222F846
Copy CRC 9222F846
Track not present in AccurateRip database
Copy OK

Track 12

Filename E:\Gregorian\Japan\2001 - Masters Of Chant Chapter II (NXCB-00030)\12. Gregorian - Stairway To Heaven.wav

Peak level 100.0 %
Extraction speed 2.3 X
Track quality 100.0 %
Test CRC A3944584
Copy CRC A3944584
Track not present in AccurateRip database
Copy OK

Track 13

Filename E:\Gregorian\Japan\2001 - Masters Of Chant Chapter II (NXCB-00030)\13. Gregorian - Breathe.wav

Pre-gap length 0:00:04.60

Peak level 96.5 %
Extraction speed 2.1 X
Track quality 100.0 %
Test CRC 54D197AC
Copy CRC 54D197AC
Track not present in AccurateRip database
Copy OK

Track 14

Filename E:\Gregorian\Japan\2001 - Masters Of Chant Chapter II (NXCB-00030)\14. Gregorian - Make Us One.wav

Peak level 96.1 %
Extraction speed 1.3 X
Track quality 99.9 %
Test CRC EE7E3778
Copy CRC EE7E3778
Track not present in AccurateRip database
Copy OK


None of the tracks are present in the AccurateRip database

No errors occurred

End of status report

–– CUETools DB Plugin V2.1.4

[CTDB TOCID: SoaTfW5b_Z0nBB6d0iYGreFTCiM-] disk not present in database
Submit result: SoaTfW5b_Z0nBB6d0iYGreFTCiM- has been uploaded


==== Log checksum B2B9426259DD500B362F75025A561C2A35A14058DD5A9064A1D5EA1681E0E514 ====

[CUETools log; Date: 15.03.2019 18:56:09; Version: 2.1.4]
[CTDB TOCID: SoaTfW5b_Z0nBB6d0iYGreFTCiM-] found.
Track | CTDB Status
1 | (6/6) Accurately ripped
2 | (6/6) Accurately ripped
3 | (6/6) Accurately ripped
4 | (6/6) Accurately ripped
5 | (6/6) Accurately ripped
6 | (6/6) Accurately ripped
7 | (6/6) Accurately ripped
8 | (6/6) Accurately ripped
9 | (6/6) Accurately ripped
10 | (6/6) Accurately ripped
11 | (6/6) Accurately ripped
12 | (6/6) Accurately ripped
13 | (6/6) Accurately ripped
14 | (5/6) Accurately ripped
[AccurateRip ID: 002674c0-0199cb59-df10fe0e] found.
Track [ CRC | V2 ] Status
01 [d4d131b1|06f2d9ec] (2+5/7) Accurately ripped
02 [90b59ea9|f033bdf2] (2+5/7) Accurately ripped
03 [290e46df|c1bd8cdd] (2+5/7) Accurately ripped
04 [c09dad2f|c3a5553e] (2+5/7) Accurately ripped
05 [3bad356f|938365e3] (2+5/7) Accurately ripped
06 [b1a957b0|1c97afef] (2+5/7) Accurately ripped
07 [18455668|b3af913e] (2+5/7) Accurately ripped
08 [63cbb62e|6d44f06c] (2+5/7) Accurately ripped
09 [34546beb|4cb82780] (2+5/7) Accurately ripped
10 [5e06b475|0a7bbbd6] (2+5/7) Accurately ripped
11 [62450215|674cd835] (2+5/7) Accurately ripped
12 [ebfc8827|76163aa6] (2+5/7) Accurately ripped
13 [d8f03c59|393bed6c] (2+4/6) Accurately ripped
14 [2d39a025|57c207b0] (2+4/6) Accurately ripped

Track Peak [ CRC32 ] [W/O NULL] [ LOG ]
– 100,0 [96EAD17F] [6465B9EC]
01 98,0 [C0801C7D] [6CC042AC] CRC32
02 100,0 [3A8629BD] [31E4679A] CRC32
03 100,0 [9E8754B2] [9CD38D8A] CRC32
04 84,3 [99B94D52] [621EF4CB] CRC32
05 100,0 [0F4ABCF8] [2AFF1149] CRC32
06 100,0 [E9A5F382] [603015FF] CRC32
07 100,0 [77C4E296] [77745BB9] CRC32
08 99,9 [578A2052] [904F94E8] CRC32
09 100,0 [A95152D2] [1EFA5F49] CRC32
10 100,0 [F81029DC] [DC2856F5] CRC32
11 99,7 [9222F846] [D6B7BF3B] CRC32
12 100,0 [A3944584] [F1A7274D] CRC32
13 96,5 [54D197AC] [1F2410C9] CRC32
14 96,1 [EE7E3778] [B5177912] CRC32

Thanks to DrStandBy