Tags
Language
Tags

Gounod - Mireille - Valerie Masterson - Luis Lima ( CD 2003 )

Posted By: jbglx
Gounod - Mireille - Valerie Masterson - Luis Lima ( CD 2003 )

Charles Gounod - Mireille
Valerie Masterson - Luis Lima ( CD 2003 )

EAC Rip | FLAC-TRACKS+CUE+LOG | 2 CD | Scans+Libretto | 137 Min. | 676 MB
Label : Ponto / Catalogue : PO-1019 /
Opera / Released in 2003

After Faust (1859) and Roméo et Juliette (1867) the most popular score of Gounod's Mireille (1864), although its international diffusion is somewhat hampered by his argument quite parochial, based on the poem Provencal Frédéric Mistral ,certainly surname corresponds to the wind of that name intermittently plaguing the heart of the province as well know many viewers Orange Festival, in addition to his singers, who have had to endure. But Mireille, overcome with pleasure the first act, with vintage and with that kind of witch Taven municipal is immediately soars to become a universal work, in the sense that what happens in it is the same thing happens in any argument nineteenth century European opera such boasts. Unrequited love between tenor and soprano on social and temper baritone determined to get to the beloved by any means possible, legal or not. The score, it is idle to say, is beautiful with all the seductive lyricism of inspiration gounodiana, with some moments of sublime writing, especially the final act, intimate and heartbreaking. In this version taken live in Geneva in 1981, superb sound, shines the splendid direction of Sylvain Cambreling and allows its two main characters make up a little of their careers official record. Since Vincent Luis Lima is an ardor and beauty of sound rarely heard before, and as Mireille rarely played Valerie Masterson as plethora of media and so devoted to the definition of delicious musical and scenic character, in many cloning pentagrámica contours of Juliette and Marguerite. The two artists 'non-French' are tucked behind excellent francophone singers, Jean-Philippe Lafont (Ourrias), Jules Bastin (Ramon) and Jane Berbie likely improvement Taven interpretations of study, within the not too nourished label representation of the work.
Gounod - Mireille - Valerie Masterson - Luis Lima ( CD 2003 )

Gounod - Mireille - Valerie Masterson - Luis Lima ( CD 2003 )

Gounod - Mireille - Valerie Masterson - Luis Lima ( CD 2003 )

Gounod - Mireille - Valerie Masterson - Luis Lima ( CD 2003 )
Opera in five acts by Charles Gounod
Sung in french .
Recorded live at the Grand Théâtre , Genéve , on september 16 , 1981 .
Cover photo , Valerie Masterson .

Cast :
Mireille : Valerie Masterson
Vincent : Luis Lima
Taven : Jane Berbié
Ramon : Jules Bastin
Ourrias : Jean-Philippe Lafont
Vincenette : Diane Loeb
Ambroise : Pierre-Yves Le Maiget
Orchestre et Choeurs de la Suisse Romande
Sylvain Cambreling

Track listing :

1 Overture
2 Chantez ,chantez , Magnanarelles
3 Ecoutez-les chanter et rire
4 Et moi , si , par hasard
5 Qui donc parle ainsi ?
6 C´est donc vrai?
7 Adieu , bonne Taven !
8 Vincenette a votre âge et vous
9 La Farandole joyeuse et folle
10 La brise est douce et parfumée
11 Place , place aux coureurs !
12 Eh bien ! …Mireille , tu ne
13 Voici la saison, mignonne
14 Que j´épouse et que j´aime
15 Trahir Vincent , vraiment
16 Mon coeur ne peut
17 Ourrias ! …Pourquoi fuir si vite
18 Si les filles d´Arles sont reines
19 Adieu ! …Permettez - moi de fuir
20 Um pére parle en pére
21 Hélas ! A vos pieds ma voilá !
22 C´est toi , misérable vannier!


1 Voici le Val d´Enfer
2 Et moi, le coeur gonflé
3 Ah! Qu´ai-je fait?
4 Dieu ! Quels accents funébres
5 Voici munuit!
6 Amis , voici la moisson faite!
7 Ah! Malhereuse enfant!
8 O Magali , ma bien - aimée
9 Le jour se léve
10 Hereux petit berger
11 Mireille !…Qui m´apelle?
12 Ah! Parle encore! Achéve!
13 Voici la vaste plaine
14 Ô vous qui du haut descieux
15 Mon coeur est plein d´un noir souci!
16 Ah! La voici! C´est elle!
17 Mireille!…Mon enfant!

CD 1
Exact Audio Copy V1.0 beta 3 from 29. August 2011

EAC extraction logfile from 26. October 2012, 23:39

Valerie Masterson - Luis lima / Gounod - Mireille

Used drive : SONY DVD RW DRU-840A Adapter: 0 ID: 1

Read mode : Secure
Utilize accurate stream : Yes
Defeat audio cache : Yes
Make use of C2 pointers : No

Read offset correction : 6
Overread into Lead-In and Lead-Out : No
Fill up missing offset samples with silence : Yes
Delete leading and trailing silent blocks : No
Null samples used in CRC calculations : Yes
Used interface : Native Win32 interface for Win NT & 2000
Gap handling : Not detected, thus appended to previous track

Used output format : User Defined Encoder
Selected bitrate : 320 kBit/s
Quality : High
Add ID3 tag : No
Command line compressor : C:\Archivos de programa\Exact Audio Copy\FLAC\FLAC.EXE
Additional command line options : -6 -V -T "ARTIST=%artist%" -T "TITLE=%title%" -T "ALBUM=%albumtitle%" -T "DATE=%year%" -T "TRACKNUMBER=%tracknr%" -T "GENRE=%genre%" -T "COMMENT=%comment%" -T "BAND=%albuminterpret%" -T "ALBUMARTIST=%albuminterpret%" -T "COMPOSER=%composer%" %haslyrics%–tag-from-file=LYRICS="%lyricsfile%"%haslyrics% -T "DISCNUMBER=%cdnumber%" -T "TOTALDISCS=%totalcds%" -T "TOTALTRACKS=%numtracks%" %hascover%–picture="%coverfile%"%hascover% %source% -o %dest%


TOC of the extracted CD

Track | Start | Length | Start sector | End sector
––––––––––––––––––––––––––––-
1 | 0:00.00 | 6:01.24 | 0 | 27098
2 | 6:01.24 | 1:49.09 | 27099 | 35282
3 | 7:50.33 | 3:08.65 | 35283 | 49447
4 | 10:59.23 | 1:22.35 | 49448 | 55632
5 | 12:21.58 | 2:08.53 | 55633 | 65285
6 | 14:30.36 | 1:37.43 | 65286 | 72603
7 | 16:08.04 | 2:14.48 | 72604 | 82701
8 | 18:22.52 | 7:24.51 | 82702 | 116052
9 | 25:47.28 | 3:21.11 | 116053 | 131138
10 | 29:08.39 | 3:16.20 | 131139 | 145858
11 | 32:24.59 | 1:35.19 | 145859 | 153002
12 | 34:00.03 | 0:42.22 | 153003 | 156174
13 | 34:42.25 | 4:25.00 | 156175 | 176049
14 | 39:07.25 | 0:50.53 | 176050 | 179852
15 | 39:58.03 | 0:30.43 | 179853 | 182145
16 | 40:28.46 | 5:04.08 | 182146 | 204953
17 | 45:32.54 | 0:49.07 | 204954 | 208635
18 | 46:21.61 | 3:11.45 | 208636 | 223005
19 | 49:33.31 | 3:44.39 | 223006 | 239844
20 | 53:17.70 | 4:59.52 | 239845 | 262321
21 | 58:17.47 | 3:13.29 | 262322 | 276825
22 | 61:31.01 | 3:23.01 | 276826 | 292051


Track 1

Filename E:\MUSICA\Mi Música\Gounod - Mireille\Gounod - Mireille - CD 1\CD\01 Overture.wav

Peak level 82.0 %
Extraction speed 1.8 X
Track quality 100.0 %
Test CRC 4C3BC53B
Copy CRC 4C3BC53B
Track not present in AccurateRip database
Copy OK

Track 2

Filename E:\MUSICA\Mi Música\Gounod - Mireille\Gounod - Mireille - CD 1\CD\02 Chantez ,chantez , Magnanarelles.wav

Peak level 66.6 %
Extraction speed 1.6 X
Track quality 100.0 %
Test CRC FB33FF8F
Copy CRC FB33FF8F
Track not present in AccurateRip database
Copy OK

Track 3

Filename E:\MUSICA\Mi Música\Gounod - Mireille\Gounod - Mireille - CD 1\CD\03 Ecoutez-les chanter et rire.wav

Peak level 72.5 %
Extraction speed 1.7 X
Track quality 99.9 %
Test CRC B1A88F1E
Copy CRC B1A88F1E
Track not present in AccurateRip database
Copy OK

Track 4

Filename E:\MUSICA\Mi Música\Gounod - Mireille\Gounod - Mireille - CD 1\CD\04 Et moi , si , par hasard.wav

Peak level 42.7 %
Extraction speed 1.7 X
Track quality 100.0 %
Test CRC 1A7D7559
Copy CRC 1A7D7559
Track not present in AccurateRip database
Copy OK

Track 5

Filename E:\MUSICA\Mi Música\Gounod - Mireille\Gounod - Mireille - CD 1\CD\05 Qui donc parle ainsi.wav

Peak level 69.7 %
Extraction speed 2.0 X
Track quality 100.0 %
Test CRC 040D660F
Copy CRC 040D660F
Track not present in AccurateRip database
Copy OK

Track 6

Filename E:\MUSICA\Mi Música\Gounod - Mireille\Gounod - Mireille - CD 1\CD\06 C´est donc vrai.wav

Peak level 46.5 %
Extraction speed 1.4 X
Track quality 99.8 %
Test CRC 46471D7C
Copy CRC 46471D7C
Track not present in AccurateRip database
Copy OK

Track 7

Filename E:\MUSICA\Mi Música\Gounod - Mireille\Gounod - Mireille - CD 1\CD\07 Adieu , bonne Taven !.wav

Peak level 67.6 %
Extraction speed 2.1 X
Track quality 100.0 %
Test CRC 760832C9
Copy CRC 760832C9
Track not present in AccurateRip database
Copy OK

Track 8

Filename E:\MUSICA\Mi Música\Gounod - Mireille\Gounod - Mireille - CD 1\CD\08 Vincenette a votre âge et vous.wav

Peak level 64.7 %
Extraction speed 2.7 X
Track quality 100.0 %
Test CRC 3026C723
Copy CRC 3026C723
Track not present in AccurateRip database
Copy OK

Track 9

Filename E:\MUSICA\Mi Música\Gounod - Mireille\Gounod - Mireille - CD 1\CD\09 La Farandole joyeuse et folle.wav

Peak level 85.5 %
Extraction speed 2.0 X
Track quality 99.9 %
Test CRC 37935100
Copy CRC 37935100
Track not present in AccurateRip database
Copy OK

Track 10

Filename E:\MUSICA\Mi Música\Gounod - Mireille\Gounod - Mireille - CD 1\CD\10 La brise est douce et parfumée.wav

Peak level 78.2 %
Extraction speed 2.7 X
Track quality 100.0 %
Test CRC 8618E5A7
Copy CRC 8618E5A7
Track not present in AccurateRip database
Copy OK

Track 11

Filename E:\MUSICA\Mi Música\Gounod - Mireille\Gounod - Mireille - CD 1\CD\11 Place , place aux coureurs !.wav

Peak level 88.9 %
Extraction speed 1.5 X
Track quality 99.8 %
Test CRC 83F32630
Copy CRC 83F32630
Track not present in AccurateRip database
Copy OK

Track 12

Filename E:\MUSICA\Mi Música\Gounod - Mireille\Gounod - Mireille - CD 1\CD\12 Eh bien ! …Mireille , tu ne.wav

Peak level 44.1 %
Extraction speed 1.7 X
Track quality 100.0 %
Test CRC 6316CB1D
Copy CRC 6316CB1D
Track not present in AccurateRip database
Copy OK

Track 13

Filename E:\MUSICA\Mi Música\Gounod - Mireille\Gounod - Mireille - CD 1\CD\13 Voici la saison, mignonne.wav

Peak level 67.2 %
Extraction speed 3.0 X
Track quality 100.0 %
Test CRC 2317FC07
Copy CRC 2317FC07
Track not present in AccurateRip database
Copy OK

Track 14

Filename E:\MUSICA\Mi Música\Gounod - Mireille\Gounod - Mireille - CD 1\CD\14 Que j´épouse et que j´aime.wav

Peak level 70.0 %
Extraction speed 2.0 X
Track quality 100.0 %
Test CRC C806E9F8
Copy CRC C806E9F8
Track not present in AccurateRip database
Copy OK

Track 15

Filename E:\MUSICA\Mi Música\Gounod - Mireille\Gounod - Mireille - CD 1\CD\15 Trahir Vincent , vraiment.wav

Peak level 55.0 %
Extraction speed 1.5 X
Track quality 100.0 %
Test CRC 7F58C37D
Copy CRC 7F58C37D
Track not present in AccurateRip database
Copy OK

Track 16

Filename E:\MUSICA\Mi Música\Gounod - Mireille\Gounod - Mireille - CD 1\CD\16 Mon coeur ne peut.wav

Peak level 81.2 %
Extraction speed 2.6 X
Track quality 99.9 %
Test CRC 25AC71DE
Copy CRC 25AC71DE
Track not present in AccurateRip database
Copy OK

Track 17

Filename E:\MUSICA\Mi Música\Gounod - Mireille\Gounod - Mireille - CD 1\CD\17 Ourrias ! …Pourquoi fuir si vite.wav

Peak level 52.8 %
Extraction speed 1.0 X
Track quality 99.7 %
Test CRC 0143614B
Copy CRC 0143614B
Track not present in AccurateRip database
Copy OK

Track 18

Filename E:\MUSICA\Mi Música\Gounod - Mireille\Gounod - Mireille - CD 1\CD\18 Si les filles d´Arles sont reines.wav

Peak level 78.2 %
Extraction speed 3.1 X
Track quality 100.0 %
Test CRC 870621B9
Copy CRC 870621B9
Track not present in AccurateRip database
Copy OK

Track 19

Filename E:\MUSICA\Mi Música\Gounod - Mireille\Gounod - Mireille - CD 1\CD\19 Adieu ! …Permettez - moi de fuir.wav

Peak level 66.6 %
Extraction speed 3.3 X
Track quality 100.0 %
Test CRC 9EA81ECF
Copy CRC 9EA81ECF
Track not present in AccurateRip database
Copy OK

Track 20

Filename E:\MUSICA\Mi Música\Gounod - Mireille\Gounod - Mireille - CD 1\CD\20 Um pére parle en pére.wav

Peak level 89.6 %
Extraction speed 3.5 X
Track quality 100.0 %
Test CRC F0004558
Copy CRC F0004558
Track not present in AccurateRip database
Copy OK

Track 21

Filename E:\MUSICA\Mi Música\Gounod - Mireille\Gounod - Mireille - CD 1\CD\21 Hélas ! A vos pieds ma voilá !.wav

Peak level 77.2 %
Extraction speed 3.4 X
Track quality 100.0 %
Test CRC 88DE2AF5
Copy CRC 88DE2AF5
Track not present in AccurateRip database
Copy OK

Track 22

Filename E:\MUSICA\Mi Música\Gounod - Mireille\Gounod - Mireille - CD 1\CD\22 C´est toi , misérable vannier!.wav

Peak level 76.0 %
Extraction speed 3.5 X
Track quality 100.0 %
Test CRC 12CBCB5C
Copy CRC 12CBCB5C
Track not present in AccurateRip database
Copy OK


None of the tracks are present in the AccurateRip database

No errors occurred

End of status report

==== Log checksum 4661F58FE39617485F24E02882563BE97C5BD2D540EF6D4BD619E8B8E2AF4757 ====

CD 2
Exact Audio Copy V1.0 beta 3 from 29. August 2011

EAC extraction logfile from 27. October 2012, 8:03

Valerie Masterson - Luis Lima / Gounod - Mireille - CD 2

Used drive : SONY DVD RW DRU-840A Adapter: 0 ID: 1

Read mode : Secure
Utilize accurate stream : Yes
Defeat audio cache : Yes
Make use of C2 pointers : No

Read offset correction : 6
Overread into Lead-In and Lead-Out : No
Fill up missing offset samples with silence : Yes
Delete leading and trailing silent blocks : No
Null samples used in CRC calculations : Yes
Used interface : Native Win32 interface for Win NT & 2000
Gap handling : Not detected, thus appended to previous track

Used output format : User Defined Encoder
Selected bitrate : 320 kBit/s
Quality : High
Add ID3 tag : No
Command line compressor : C:\Archivos de programa\Exact Audio Copy\FLAC\FLAC.EXE
Additional command line options : -6 -V -T "ARTIST=%artist%" -T "TITLE=%title%" -T "ALBUM=%albumtitle%" -T "DATE=%year%" -T "TRACKNUMBER=%tracknr%" -T "GENRE=%genre%" -T "COMMENT=%comment%" -T "BAND=%albuminterpret%" -T "ALBUMARTIST=%albuminterpret%" -T "COMPOSER=%composer%" %haslyrics%–tag-from-file=LYRICS="%lyricsfile%"%haslyrics% -T "DISCNUMBER=%cdnumber%" -T "TOTALDISCS=%totalcds%" -T "TOTALTRACKS=%numtracks%" %hascover%–picture="%coverfile%"%hascover% %source% -o %dest%


TOC of the extracted CD

Track | Start | Length | Start sector | End sector
––––––––––––––––––––––––––––-
1 | 0:00.00 | 2:54.64 | 0 | 13113
2 | 2:54.64 | 8:28.36 | 13114 | 51249
3 | 11:23.25 | 4:17.35 | 51250 | 70559
4 | 15:40.60 | 1:25.02 | 70560 | 76936
5 | 17:05.62 | 8:30.24 | 76937 | 115210
6 | 25:36.11 | 4:25.32 | 115211 | 135117
7 | 30:01.43 | 2:34.00 | 135118 | 146667
8 | 32:35.43 | 2:10.44 | 146668 | 156461
9 | 34:46.12 | 2:46.07 | 156462 | 168918
10 | 37:32.19 | 1:52.64 | 168919 | 177382
11 | 39:25.08 | 0:57.25 | 177383 | 181682
12 | 40:22.33 | 5:57.41 | 181683 | 208498
13 | 46:19.74 | 9:26.06 | 208499 | 250954
14 | 55:46.05 | 2:18.45 | 250955 | 261349
15 | 58:04.50 | 3:45.67 | 261350 | 278291
16 | 61:50.42 | 4:26.14 | 278292 | 298255
17 | 66:16.56 | 5:43.48 | 298256 | 324028


Track 1

Filename E:\MUSICA\Mi Música\Gounod - Mireille\Gounod - Mireille - CD 2\01 Voici le Val d´Enfer.wav

Peak level 61.5 %
Extraction speed 1.6 X
Track quality 100.0 %
Test CRC A43B3989
Copy CRC A43B3989
Track not present in AccurateRip database
Copy OK

Track 2

Filename E:\MUSICA\Mi Música\Gounod - Mireille\Gounod - Mireille - CD 2\02 Et moi, le coeur gonflé.wav

Peak level 91.6 %
Extraction speed 2.1 X
Track quality 100.0 %
Test CRC B1F3631C
Copy CRC B1F3631C
Track not present in AccurateRip database
Copy OK

Track 3

Filename E:\MUSICA\Mi Música\Gounod - Mireille\Gounod - Mireille - CD 2\03 Ah! Qu´ai-je fait.wav

Peak level 85.4 %
Extraction speed 2.3 X
Track quality 100.0 %
Test CRC B900949E
Copy CRC B900949E
Track not present in AccurateRip database
Copy OK

Track 4

Filename E:\MUSICA\Mi Música\Gounod - Mireille\Gounod - Mireille - CD 2\04 Dieu ! Quels accents funébres.wav

Peak level 34.2 %
Extraction speed 1.8 X
Track quality 100.0 %
Test CRC 0B2E32D3
Copy CRC 0B2E32D3
Track not present in AccurateRip database
Copy OK

Track 5

Filename E:\MUSICA\Mi Música\Gounod - Mireille\Gounod - Mireille - CD 2\05 Voici munuit!.wav

Peak level 96.4 %
Extraction speed 2.7 X
Track quality 100.0 %
Test CRC 7F52AD4B
Copy CRC 7F52AD4B
Track not present in AccurateRip database
Copy OK

Track 6

Filename E:\MUSICA\Mi Música\Gounod - Mireille\Gounod - Mireille - CD 2\06 Amis , voici la moisson faite!.wav

Peak level 71.7 %
Extraction speed 2.8 X
Track quality 100.0 %
Test CRC 5FD62C42
Copy CRC 5FD62C42
Track not present in AccurateRip database
Copy OK

Track 7

Filename E:\MUSICA\Mi Música\Gounod - Mireille\Gounod - Mireille - CD 2\07 Ah! Malhereuse enfant!.wav

Peak level 68.8 %
Extraction speed 1.9 X
Track quality 99.9 %
Test CRC AD8950E1
Copy CRC AD8950E1
Track not present in AccurateRip database
Copy OK

Track 8

Filename E:\MUSICA\Mi Música\Gounod - Mireille\Gounod - Mireille - CD 2\08 O Magali , ma bien - aimée.wav

Peak level 54.9 %
Extraction speed 2.5 X
Track quality 100.0 %
Test CRC 463FF0DF
Copy CRC 463FF0DF
Track not present in AccurateRip database
Copy OK

Track 9

Filename E:\MUSICA\Mi Música\Gounod - Mireille\Gounod - Mireille - CD 2\09 Le jour se léve.wav

Peak level 62.0 %
Extraction speed 2.8 X
Track quality 100.0 %
Test CRC 7750C32C
Copy CRC 7750C32C
Track not present in AccurateRip database
Copy OK

Track 10

Filename E:\MUSICA\Mi Música\Gounod - Mireille\Gounod - Mireille - CD 2\10 Hereux petet berger.wav

Peak level 62.9 %
Extraction speed 1.7 X
Track quality 99.9 %
Test CRC 2A382AE1
Copy CRC 2A382AE1
Track not present in AccurateRip database
Copy OK

Track 11

Filename E:\MUSICA\Mi Música\Gounod - Mireille\Gounod - Mireille - CD 2\11 Mireille !…Qui m´apelle.wav

Peak level 60.0 %
Extraction speed 2.1 X
Track quality 100.0 %
Test CRC 3AB9C3F9
Copy CRC 3AB9C3F9
Track not present in AccurateRip database
Copy OK

Track 12

Filename E:\MUSICA\Mi Música\Gounod - Mireille\Gounod - Mireille - CD 2\12 Ah! Parle encore! Achéve!.wav

Peak level 66.7 %
Extraction speed 2.7 X
Track quality 99.9 %
Test CRC ABF3D510
Copy CRC ABF3D510
Track not present in AccurateRip database
Copy OK

Track 13

Filename E:\MUSICA\Mi Música\Gounod - Mireille\Gounod - Mireille - CD 2\13 Voici la vaste plaine.wav

Peak level 69.6 %
Extraction speed 3.6 X
Track quality 100.0 %
Test CRC 6C7B80D0
Copy CRC 6C7B80D0
Track not present in AccurateRip database
Copy OK

Track 14

Filename E:\MUSICA\Mi Música\Gounod - Mireille\Gounod - Mireille - CD 2\14 Ô vous qui du haut descieux.wav

Peak level 55.2 %
Extraction speed 3.1 X
Track quality 100.0 %
Test CRC 912229AE
Copy CRC 912229AE
Track not present in AccurateRip database
Copy OK

Track 15

Filename E:\MUSICA\Mi Música\Gounod - Mireille\Gounod - Mireille - CD 2\15 Mon coeur est plein d´un noir souci!.wav

Peak level 55.7 %
Extraction speed 3.5 X
Track quality 100.0 %
Test CRC 23668B70
Copy CRC 23668B70
Track not present in AccurateRip database
Copy OK

Track 16

Filename E:\MUSICA\Mi Música\Gounod - Mireille\Gounod - Mireille - CD 2\16 Ah! La voici! C´est elle!.wav

Peak level 61.1 %
Extraction speed 3.7 X
Track quality 100.0 %
Test CRC 2AD3E1FC
Copy CRC 2AD3E1FC
Track not present in AccurateRip database
Copy OK

Track 17

Filename E:\MUSICA\Mi Música\Gounod - Mireille\Gounod - Mireille - CD 2\17 Mireille!…Mon enfant!.wav

Peak level 59.0 %
Extraction speed 3.0 X
Track quality 99.9 %
Test CRC BF487BE0
Copy CRC BF487BE0
Track not present in AccurateRip database
Copy OK


None of the tracks are present in the AccurateRip database

No errors occurred

End of status report

==== Log checksum 2861538644ACD5EE9A7E7DE5FA27329038014A3630E6A49DBD13A39D125A3DEA ====

––––––––––––––––––––––––––––––

Exact Audio Copy V1.0 beta 3 from 29. August 2011

EAC extraction logfile from 27. October 2012, 8:03

Valerie Masterson - Luis Lima / Gounod - Mireille - CD 2

Used drive : SONY DVD RW DRU-840A Adapter: 0 ID: 1

Read mode : Secure
Utilize accurate stream : Yes
Defeat audio cache : Yes
Make use of C2 pointers : No

Read offset correction : 6
Overread into Lead-In and Lead-Out : No
Fill up missing offset samples with silence : Yes
Delete leading and trailing silent blocks : No
Null samples used in CRC calculations : Yes
Used interface : Native Win32 interface for Win NT & 2000
Gap handling : Not detected, thus appended to previous track

Used output format : User Defined Encoder
Selected bitrate : 320 kBit/s
Quality : High
Add ID3 tag : No
Command line compressor : C:\Archivos de programa\Exact Audio Copy\FLAC\FLAC.EXE
Additional command line options : -6 -V -T "ARTIST=%artist%" -T "TITLE=%title%" -T "ALBUM=%albumtitle%" -T "DATE=%year%" -T "TRACKNUMBER=%tracknr%" -T "GENRE=%genre%" -T "COMMENT=%comment%" -T "BAND=%albuminterpret%" -T "ALBUMARTIST=%albuminterpret%" -T "COMPOSER=%composer%" %haslyrics%–tag-from-file=LYRICS="%lyricsfile%"%haslyrics% -T "DISCNUMBER=%cdnumber%" -T "TOTALDISCS=%totalcds%" -T "TOTALTRACKS=%numtracks%" %hascover%–picture="%coverfile%"%hascover% %source% -o %dest%


TOC of the extracted CD

Track | Start | Length | Start sector | End sector
––––––––––––––––––––––––––––-
1 | 0:00.00 | 2:54.64 | 0 | 13113
2 | 2:54.64 | 8:28.36 | 13114 | 51249
3 | 11:23.25 | 4:17.35 | 51250 | 70559
4 | 15:40.60 | 1:25.02 | 70560 | 76936
5 | 17:05.62 | 8:30.24 | 76937 | 115210
6 | 25:36.11 | 4:25.32 | 115211 | 135117
7 | 30:01.43 | 2:34.00 | 135118 | 146667
8 | 32:35.43 | 2:10.44 | 146668 | 156461
9 | 34:46.12 | 2:46.07 | 156462 | 168918
10 | 37:32.19 | 1:52.64 | 168919 | 177382
11 | 39:25.08 | 0:57.25 | 177383 | 181682
12 | 40:22.33 | 5:57.41 | 181683 | 208498
13 | 46:19.74 | 9:26.06 | 208499 | 250954
14 | 55:46.05 | 2:18.45 | 250955 | 261349
15 | 58:04.50 | 3:45.67 | 261350 | 278291
16 | 61:50.42 | 4:26.14 | 278292 | 298255
17 | 66:16.56 | 5:43.48 | 298256 | 324028


Track 1

Filename E:\MUSICA\Mi Música\Gounod - Mireille\Gounod - Mireille - CD 2\01 Voici le Val d´Enfer.wav

Peak level 61.5 %
Extraction speed 1.6 X
Track quality 100.0 %
Test CRC A43B3989
Copy CRC A43B3989
Track not present in AccurateRip database
Copy OK

Track 2

Filename E:\MUSICA\Mi Música\Gounod - Mireille\Gounod - Mireille - CD 2\02 Et moi, le coeur gonflé.wav

Peak level 91.6 %
Extraction speed 2.1 X
Track quality 100.0 %
Test CRC B1F3631C
Copy CRC B1F3631C
Track not present in AccurateRip database
Copy OK

Track 3

Filename E:\MUSICA\Mi Música\Gounod - Mireille\Gounod - Mireille - CD 2\03 Ah! Qu´ai-je fait.wav

Peak level 85.4 %
Extraction speed 2.3 X
Track quality 100.0 %
Test CRC B900949E
Copy CRC B900949E
Track not present in AccurateRip database
Copy OK

Track 4

Filename E:\MUSICA\Mi Música\Gounod - Mireille\Gounod - Mireille - CD 2\04 Dieu ! Quels accents funébres.wav

Peak level 34.2 %
Extraction speed 1.8 X
Track quality 100.0 %
Test CRC 0B2E32D3
Copy CRC 0B2E32D3
Track not present in AccurateRip database
Copy OK

Track 5

Filename E:\MUSICA\Mi Música\Gounod - Mireille\Gounod - Mireille - CD 2\05 Voici munuit!.wav

Peak level 96.4 %
Extraction speed 2.7 X
Track quality 100.0 %
Test CRC 7F52AD4B
Copy CRC 7F52AD4B
Track not present in AccurateRip database
Copy OK

Track 6

Filename E:\MUSICA\Mi Música\Gounod - Mireille\Gounod - Mireille - CD 2\06 Amis , voici la moisson faite!.wav

Peak level 71.7 %
Extraction speed 2.8 X
Track quality 100.0 %
Test CRC 5FD62C42
Copy CRC 5FD62C42
Track not present in AccurateRip database
Copy OK

Track 7

Filename E:\MUSICA\Mi Música\Gounod - Mireille\Gounod - Mireille - CD 2\07 Ah! Malhereuse enfant!.wav

Peak level 68.8 %
Extraction speed 1.9 X
Track quality 99.9 %
Test CRC AD8950E1
Copy CRC AD8950E1
Track not present in AccurateRip database
Copy OK

Track 8

Filename E:\MUSICA\Mi Música\Gounod - Mireille\Gounod - Mireille - CD 2\08 O Magali , ma bien - aimée.wav

Peak level 54.9 %
Extraction speed 2.5 X
Track quality 100.0 %
Test CRC 463FF0DF
Copy CRC 463FF0DF
Track not present in AccurateRip database
Copy OK

Track 9

Filename E:\MUSICA\Mi Música\Gounod - Mireille\Gounod - Mireille - CD 2\09 Le jour se léve.wav

Peak level 62.0 %
Extraction speed 2.8 X
Track quality 100.0 %
Test CRC 7750C32C
Copy CRC 7750C32C
Track not present in AccurateRip database
Copy OK

Track 10

Filename E:\MUSICA\Mi Música\Gounod - Mireille\Gounod - Mireille - CD 2\10 Hereux petet berger.wav

Peak level 62.9 %
Extraction speed 1.7 X
Track quality 99.9 %
Test CRC 2A382AE1
Copy CRC 2A382AE1
Track not present in AccurateRip database
Copy OK

Track 11

Filename E:\MUSICA\Mi Música\Gounod - Mireille\Gounod - Mireille - CD 2\11 Mireille !…Qui m´apelle.wav

Peak level 60.0 %
Extraction speed 2.1 X
Track quality 100.0 %
Test CRC 3AB9C3F9
Copy CRC 3AB9C3F9
Track not present in AccurateRip database
Copy OK

Track 12

Filename E:\MUSICA\Mi Música\Gounod - Mireille\Gounod - Mireille - CD 2\12 Ah! Parle encore! Achéve!.wav

Peak level 66.7 %
Extraction speed 2.7 X
Track quality 99.9 %
Test CRC ABF3D510
Copy CRC ABF3D510
Track not present in AccurateRip database
Copy OK

Track 13

Filename E:\MUSICA\Mi Música\Gounod - Mireille\Gounod - Mireille - CD 2\13 Voici la vaste plaine.wav

Peak level 69.6 %
Extraction speed 3.6 X
Track quality 100.0 %
Test CRC 6C7B80D0
Copy CRC 6C7B80D0
Track not present in AccurateRip database
Copy OK

Track 14

Filename E:\MUSICA\Mi Música\Gounod - Mireille\Gounod - Mireille - CD 2\14 Ô vous qui du haut descieux.wav

Peak level 55.2 %
Extraction speed 3.1 X
Track quality 100.0 %
Test CRC 912229AE
Copy CRC 912229AE
Track not present in AccurateRip database
Copy OK

Track 15

Filename E:\MUSICA\Mi Música\Gounod - Mireille\Gounod - Mireille - CD 2\15 Mon coeur est plein d´un noir souci!.wav

Peak level 55.7 %
Extraction speed 3.5 X
Track quality 100.0 %
Test CRC 23668B70
Copy CRC 23668B70
Track not present in AccurateRip database
Copy OK

Track 16

Filename E:\MUSICA\Mi Música\Gounod - Mireille\Gounod - Mireille - CD 2\16 Ah! La voici! C´est elle!.wav

Peak level 61.1 %
Extraction speed 3.7 X
Track quality 100.0 %
Test CRC 2AD3E1FC
Copy CRC 2AD3E1FC
Track not present in AccurateRip database
Copy OK

Track 17

Filename E:\MUSICA\Mi Música\Gounod - Mireille\Gounod - Mireille - CD 2\17 Mireille!…Mon enfant!.wav

Peak level 59.0 %
Extraction speed 3.0 X
Track quality 99.9 %
Test CRC BF487BE0
Copy CRC BF487BE0
Track not present in AccurateRip database
Copy OK


None of the tracks are present in the AccurateRip database

No errors occurred

End of status report

==== Log checksum 2861538644ACD5EE9A7E7DE5FA27329038014A3630E6A49DBD13A39D125A3DEA ====