Subcategories
Tags
Language
Tags

Gordon Goodwin's Big Phat Band - Wrap This! - A Big Phat Christmas (2015)

Posted By: Designol
Gordon Goodwin's Big Phat Band - Wrap This! - A Big Phat Christmas (2015)

Gordon Goodwin's Big Phat Band - Wrap This! - A Big Phat Christmas (2015)
EAC | FLAC | Image (Cue&Log) ~ 341 Mb | Mp3 (CBR320) ~ 138 Mb | Scans included
Label: Wingood Music/Music Of Content | # MOC2001 | Time: 00:49:00
Genre: Jazz, Big Band, Holidays

Four-time Grammy® winners turn their attention to a very unique take on Holiday Favorites. Big Band Jazz, with some very special guests, will make your Holidays especially Merry! Carol of the Bells (feat. Eric Marienthal, soprano sax) Do You Hear What I Hear? (feat. Take 6) Let It Snow, Let It Snow, Let it Snow (feat. Jeff Driskill, tenor sax) Hark The Herald Angels Sing (feat. Trey Henry, bass, Gordon Goodwin, piano, Andy Martin, trombone) The Little Drummer Boy (feat. Jay Mason, baritone sax, Andrew Synoweic, guitar) A Christmas arol (feat. Wayne Bergeron, trumpet, Francisco Torres, trombone) I Heard the Bells On Christmas Day (feat. Dan Fornero, trumpet, Gordon Goodwin, tenor sax) Somewhere in my Memory (feat. Gordon Goodwin, soprano sax) Santa Baby (feat. Brian Scanlon, tenor sax, Willie Murillo, trumpet) Have Yourself a Merry Little Christmas.

Here’s the kind of Christmas album that drives me crazy. Gordon Goodwin’s arrangements of Christmas standards like “Carol of the Bells,” Little Drummer Boy” and “Hark, the Herald Angels Sing” are so rich, swinging and clever that I want to listen to them all year round. But because of the material, I’ll only be able to enjoy this charmer for about 6 weeks. Take 6 does some wondrous vocals on “Do You Hear What I Hear” and Goodwin himself delivers an impressive tenor solo on “ I Heard the Bells on Christmas Day,” while Wayne Bergeron does his best impersonation of the angel Gabriel on “Have Yourself a Merry Little Christmas.”

Any thoughts on an album for Presidents Day, or Fourth of July?

Review by George W. Harris, JazzWeekly.com

Gordon Goodwin's Big Phat Band - Wrap This! - A Big Phat Christmas (2015)



Tracklist:

01. Carol Of The Bells (06:21)
02. Do You Hear What I Hear? (Featuring Take 6) (03:02)
03. Let It Snow, Let It Snow, Let It Snow (04:32)
04. Hark The Herald Angels Sing (05:21)
05. The Little Drummer Boy (06:47)
06. A Christmas Carol (05:05)
07. I Heard The Bells On Christmas Day (04:25)
08. Somewhere In My Memory (05:50)
09. Santa Baby (05:01)
10. Have Yourself A Merry Little Christmas (02:31)


Exact Audio Copy V1.0 beta 3 from 29. August 2011

Отчёт EAC об извлечении, выполненном 8. декабря 2015, 21:07

Gordon Goodwin's Big Phat Band / Wrap This! - A Big Phat Christmas

Дисковод: ATAPI iHAS122 C Adapter: 1 ID: 1

Режим чтения : Достоверность
Использование точного потока : Да
Отключение кэша аудио : Да
Использование указателей C2 : Нет

Коррекция смещения при чтении : 6
Способность читать области Lead-in и Lead-out : Нет
Заполнение пропущенных сэмплов тишиной : Да
Удаление блоков с тишиной в начале и конце : Нет
При вычислениях CRC использовались нулевые сэмплы : Да
Интерфейс : Встроенный Win32-интерфейс для Win NT/2000

Выходной формат : Пользовательский кодировщик
Выбранный битрейт : 768 kBit/s
Качество : Высокий
Добавление ID3-тега : Да
Утилита сжатия : E:\Exact Audio Copy\FLAC\FLAC.EXE
Дополнительные параметры : -6 -V -T "ARTIST=%artist%" -T "TITLE=%title%" -T "ALBUM=%albumtitle%" -T "DATE=%year%" -T "TRACKNUMBER=%tracknr%" -T "GENRE=%genre%" -T "COMMENT=%comment%" -T "BAND=%albuminterpret%" -T "ALBUMARTIST=%albuminterpret%" -T "COMPOSER=%composer%" %haslyrics%–tag-from-file=LYRICS="%lyricsfile%"%haslyrics% -T "DISCNUMBER=%cdnumber%" -T "TOTALDISCS=%totalcds%" -T "TOTALTRACKS=%numtracks%" %hascover%–picture="%coverfile%"%hascover% %source% -o %dest%


TOC извлечённого CD

Трек | Старт | Длительность | Начальный сектор | Конечный сектор
––––––––––––––––––––––––––––––––––-
1 | 0:00.00 | 6:21.12 | 0 | 28586
2 | 6:21.12 | 3:02.69 | 28587 | 42305
3 | 9:24.06 | 4:32.47 | 42306 | 62752
4 | 13:56.53 | 5:21.64 | 62753 | 86891
5 | 19:18.42 | 6:47.42 | 86892 | 117458
6 | 26:06.09 | 5:05.26 | 117459 | 140359
7 | 31:11.35 | 4:25.30 | 140360 | 160264
8 | 35:36.65 | 5:50.44 | 160265 | 186558
9 | 41:27.34 | 5:01.60 | 186559 | 209193
10 | 46:29.19 | 2:31.04 | 209194 | 220522


Характеристики диапазона извлечения и сообщения об ошибках

Выбранный диапазон

Имя файла D:\UPLOADS-3\Gordon Goodwin's Big Phat Band - Wrap This! - A Big Phat Christmas - 2015 - 49'02''\Gordon Goodwin's Big Phat Band - Wrap This! - A Big Phat Christmas.wav

Пиковый уровень 100.0 %
Скорость извлечения 3.4 X
Качество диапазона 100.0 %
CRC теста DE108A8B
CRC копии DE108A8B
Копирование… OK

Ошибок не произошло

Конец отчёта

==== Контрольная сумма отчёта E2210BBC6BCB4FA28E87A1484D2D4C5445C956D9D63D98FDE90A89A9D50B3688 ====

foobar2000 1.3.8 / Dynamic Range Meter 1.1.1
log date: 2015-12-12 02:41:17

––––––––––––––––––––––––––––––––––––––––
Analyzed: Gordon Goodwin's Big Phat Band / Wrap This! - A Big Phat Christmas
––––––––––––––––––––––––––––––––––––––––

DR Peak RMS Duration Track
––––––––––––––––––––––––––––––––––––––––
DR8 0.00 dB -10.04 dB 6:21 01-Carol Of The Bells
DR8 0.00 dB -9.66 dB 3:03 02-Do You Hear What I Hear? (Featuring Take 6)
DR9 0.00 dB -11.99 dB 4:33 03-Let It Snow, Let It Snow, Let It Snow
DR10 0.00 dB -13.21 dB 5:22 04-Hark The Herald Angels Sing
DR8 0.00 dB -10.80 dB 6:48 05-The Little Drummer Boy
DR9 0.00 dB -10.32 dB 5:05 06-A Christmas Carol
DR10 0.00 dB -12.34 dB 4:25 07-I Heard The Bells On Christmas Day
DR10 -0.07 dB -12.35 dB 5:51 08-Somewhere In My Memory
DR9 0.00 dB -11.44 dB 5:02 09-Santa Baby
DR9 -0.06 dB -13.27 dB 2:31 10-Have Yourself A Merry Little Christmas
––––––––––––––––––––––––––––––––––––––––

Number of tracks: 10
Official DR value: DR9

Samplerate: 44100 Hz
Channels: 2
Bits per sample: 16
Bitrate: 900 kbps
Codec: FLAC
================================================================================

Gordon Goodwin's Big Phat Band - Wrap This! - A Big Phat Christmas (2015)

Gordon Goodwin's Big Phat Band - Wrap This! - A Big Phat Christmas (2015)

All thanks to original releaser - RedHotBlues

More interesting music in My Blog