Subcategories
Tags
Language
Tags

Gianni Morandi - 24 Greatest Hits (1995)

Posted By: Designol
Gianni Morandi - 24 Greatest Hits (1995)

Gianni Morandi - 24 Greatest Hits (1995)
EAC | FLAC | Image (Cue&Log) ~ 428 Mb | Mp3 (CBR320) ~ 167 Mb | Scans included
Italian Pop, Adult Contemporary | Label: Avokado | # ND 70423 | Time: 01:12:15

Italian pop culture icon Gianni Morandi worked his way up from the bottom of the entertainment industry. Born in 1944, as a child Morandi sold soda and candies at the local movie theater in his native town of Monghidoro to make ends meet. He made his performance debut at age 12, singing in the public square on New Year's Day, 1956. His noticeable musical talent caused his parents to move him from traditional schooling to a school in Bologna, where he studied song and performance with master vocalist Alda Scaglioni. He made his official debut in 1958 in Alfonsine, Ravenna; three years later Morandi formed a band, and was soon referred to as the Italian Paul Anka. In 1962, Morandi won a small talent competition where he met and impressed boxing and entertainment promoter Paul Lionetti, who arranged an audience with RCA executives. That same year, the world was introduced to Morandi via his premier 45, "Andavo a Cento All'ora." Morandi's popularity blossomed in 1969 with his win at the Canzonissima Festival. Although he experienced a slight decline in popularity during the 1970s, the next decade was a great era for Morandi, punctuated with his winning performance at the prestigious Sanremo Festival in 1987. Over the course of his career, it is estimated that Morandi has sold more than 30 million records. In addition to a successful recording career, Morandi has appeared in 18 films and played a number of popular television roles. Having enjoyed four decades of unmatched success, Gianni Morandi is among Italy's greatest performers of all time.

Review by Evan C. Gutierrez, Allmusic.com

Gianni Morandi - 24 Greatest Hits (1995)



Tracklist:

01. Il Giocattolo (02:35)
02. Fumo Negli Occhi (03:20)
03. Non Son Degno Di Te (03:09)
04. La Fisarmonica (02:56)
05. Notte Di Ferragosto (02:40)
06. Mezzanotte Fra Poco (02:49)
07. Chimera (03:00)
08. Nu Che M'hai Preso Il Cuor (02:34)
09. Scende La Pioggia (02:31)
10. In Ginocchio Da Te (03:15)
11. Go-kart Twist (02:31)
12. Fatti Mandare Dalla Mamma A Prendere Il Latte (02:15)
13. Non Voglo Innamorarmi Piu (02:39)
14. Il Mondo Di Frutta Candida (02:58)
15. Belinda (02:42)
16. Capriccio (02:38)
17. Occhi Di Ragazza (02:53)
18. Ma Chi Se Ne Importa (02:37)
19. Ho Visto Un Film (Here's To You) (03:10)
20. Vado A Lavorare (03:37)
21. Principessa (03:31)
22. Parla Piu Piano (03:00)
23. Il Mondo Cambiera (04:25)
24. Vidi Che Un Cavallo (04:18)


Exact Audio Copy V1.0 beta 3 from 29. August 2011

Отчёт EAC об извлечении, выполненном 29. ноября 2015, 22:29

Gianni Morandi / 24 Greatest Hits

Дисковод: Optiarc DVD RW AD-7280S Adapter: 1 ID: 0

Режим чтения : Достоверность
Использование точного потока : Да
Отключение кэша аудио : Да
Использование указателей C2 : Нет

Коррекция смещения при чтении : 48
Способность читать области Lead-in и Lead-out : Нет
Заполнение пропущенных сэмплов тишиной : Да
Удаление блоков с тишиной в начале и конце : Нет
При вычислениях CRC использовались нулевые сэмплы : Да
Интерфейс : Встроенный Win32-интерфейс для Win NT/2000

Выходной формат : Внутренние WAV-операции
Формат сэмплов : 44.100 Гц; 16 бит; стерео


TOC извлечённого CD

Трек | Старт | Длительность | Начальный сектор | Конечный сектор
––––––––––––––––––––––––––––––––––-
1 | 0:00.00 | 2:35.45 | 0 | 11669
2 | 2:35.45 | 3:20.30 | 11670 | 26699
3 | 5:56.00 | 3:09.30 | 26700 | 40904
4 | 9:05.30 | 2:56.38 | 40905 | 54142
5 | 12:01.68 | 2:40.12 | 54143 | 66154
6 | 14:42.05 | 2:49.28 | 66155 | 78857
7 | 17:31.33 | 3:00.10 | 78858 | 92367
8 | 20:31.43 | 2:34.25 | 92368 | 103942
9 | 23:05.68 | 2:31.40 | 103943 | 115307
10 | 25:37.33 | 3:15.72 | 115308 | 130004
11 | 28:53.30 | 2:31.13 | 130005 | 141342
12 | 31:24.43 | 2:15.65 | 141343 | 151532
13 | 33:40.33 | 2:39.10 | 151533 | 163467
14 | 36:19.43 | 2:58.17 | 163468 | 176834
15 | 39:17.60 | 2:42.58 | 176835 | 189042
16 | 42:00.43 | 2:38.70 | 189043 | 200962
17 | 44:39.38 | 2:53.37 | 200963 | 213974
18 | 47:33.00 | 2:37.43 | 213975 | 225792
19 | 50:10.43 | 3:10.60 | 225793 | 240102
20 | 53:21.28 | 3:37.02 | 240103 | 256379
21 | 56:58.30 | 3:31.73 | 256380 | 272277
22 | 60:30.28 | 3:00.47 | 272278 | 285824
23 | 63:31.00 | 4:25.13 | 285825 | 305712
24 | 67:56.13 | 4:18.25 | 305713 | 325087


Характеристики диапазона извлечения и сообщения об ошибках

Выбранный диапазон

Имя файла C:\Users\User\Desktop\111\Gianni Morandi - 24 Greatest Hits.wav

Пиковый уровень 90.6 %
Скорость извлечения 3.5 X
Качество диапазона 100.0 %
CRC теста 2F2E731C
CRC копии 2F2E731C
Копирование… OK

Ошибок не произошло


AccurateRip: сводка

Трек 1 отсутствует в базе данных
Трек 2 отсутствует в базе данных
Трек 3 отсутствует в базе данных
Трек 4 отсутствует в базе данных
Трек 5 отсутствует в базе данных
Трек 6 отсутствует в базе данных
Трек 7 отсутствует в базе данных
Трек 8 отсутствует в базе данных
Трек 9 отсутствует в базе данных
Трек 10 отсутствует в базе данных
Трек 11 отсутствует в базе данных
Трек 12 отсутствует в базе данных
Трек 13 отсутствует в базе данных
Трек 14 отсутствует в базе данных
Трек 15 отсутствует в базе данных
Трек 16 отсутствует в базе данных
Трек 17 отсутствует в базе данных
Трек 18 отсутствует в базе данных
Трек 19 отсутствует в базе данных
Трек 20 отсутствует в базе данных
Трек 21 отсутствует в базе данных
Трек 22 отсутствует в базе данных
Трек 23 отсутствует в базе данных
Трек 24 отсутствует в базе данных

Ни одного трека нет в базе AccurateRip

Конец отчёта

==== Контрольная сумма отчёта 9232E38E965455A581B873574DDF757DF7AF180036A29CC868D1352EE195A2C9 ====

foobar2000 1.3.8 / Dynamic Range Meter 1.1.1
log date: 2015-12-06 03:12:43

––––––––––––––––––––––––––––––––––––––––
Analyzed: Gianni Morandi / 24 Greatest Hits
––––––––––––––––––––––––––––––––––––––––

DR Peak RMS Duration Track
––––––––––––––––––––––––––––––––––––––––
DR12 -1.66 dB -15.85 dB 2:36 01-Il Giocattolo
DR13 -0.86 dB -17.20 dB 3:20 02-Fumo Negli Occhi
DR11 -2.26 dB -16.02 dB 3:09 03-Non Son Degno Di Te
DR10 -2.97 dB -15.96 dB 2:57 04-La Fisarmonica
DR11 -2.26 dB -18.57 dB 2:40 05-Notte Di Ferragosto
DR11 -2.44 dB -16.24 dB 2:49 06-Mezzanotte Fra Poco
DR12 -0.86 dB -14.75 dB 3:00 07-Chimera
DR10 -1.87 dB -16.35 dB 2:34 08-Nu Che M'hai Preso Il Cuor
DR12 -1.73 dB -15.73 dB 2:32 09-Scende La Pioggia
DR11 -2.44 dB -16.57 dB 3:16 10-In Ginocchio Da Te
DR11 -2.22 dB -15.83 dB 2:31 11-Go-kart Twist
DR11 -2.90 dB -16.81 dB 2:16 12-Fatti Mandare Dalla Mamma A Prendere Il Latte
DR13 -2.00 dB -16.99 dB 2:39 13-Non Voglo Innamorarmi Piu
DR12 -0.86 dB -16.03 dB 2:58 14-Il Mondo Di Frutta Candida
DR11 -2.64 dB -15.46 dB 2:43 15-Belinda
DR12 -0.86 dB -17.09 dB 2:39 16-Capriccio
DR13 -1.03 dB -16.11 dB 2:53 17-Occhi Di Ragazza
DR11 -1.31 dB -14.72 dB 2:38 18-Ma Chi Se Ne Importa
DR11 -1.92 dB -17.16 dB 3:11 19-Ho Visto Un Film (Here's To You)
DR14 -1.76 dB -18.02 dB 3:37 20-Vado A Lavorare
DR12 -1.74 dB -17.06 dB 3:32 21-Principessa
DR11 -1.72 dB -16.40 dB 3:01 22-Parla Piu Piano
DR13 -2.43 dB -19.36 dB 4:25 23-Il Mondo Cambiera
DR15 -1.07 dB -20.00 dB 4:18 24-Vidi Che Un Cavallo
––––––––––––––––––––––––––––––––––––––––

Number of tracks: 24
Official DR value: DR12

Samplerate: 44100 Hz
Channels: 2
Bits per sample: 16
Bitrate: 825 kbps
Codec: FLAC
================================================================================

Gianni Morandi - 24 Greatest Hits (1995)

Gianni Morandi - 24 Greatest Hits (1995)

All thanks to original releaser - mart64val

More interesting music in My Blog