Subcategories

Gato Barbieri - Qui Pasa (1997) {Columbia}

Posted By: tiburon
Gato Barbieri - Qui Pasa (1997) {Columbia}

Gato Barbieri - Qui Pasa (1997) {Columbia}
EAC 0.99pb4 | FLAC tracks level 8 | Cue+Log+M3U | Full Scans 300dpi | 450MB + 5% Recovery
MP3 CBR 320 Kbps | 136MB + 5% Recovery
Genre: Latin Jazz, Smooth Jazz

Gato Barbieri, one of the most distinctive instrumentalists in jazz, is in top form on Que Pasa. Barbieri's tone and sense of melody is stunning–evoking a myriad of emotions with just one phrase. This is no more evident than on the opening track, "Straight into the Sunrise" which is dripping with sensual and moving lines that are unsurpassed in jazz today. Barbieri's rare ability to use his instrument to convey his emotions is amazing; it's as though he is baring his most intimate thoughts and feelings to the listener.
Track List
01. Straight Into The Sunrise 5:36
02. Blue Gala 5:56
03. Mystica 5:18
04. Dancing With Dolphins 6:23
05. Circulos 5:54
06. Guadeloupe 5:12
07. Cause We've Ended As Lovers 5:01
08. Indonesia 4:48
09. The Woman I Remember 5:10
10. Granada 5:49
11. Adentro 4:25

musicians
Gato Barbieri - saxophone
Philippe Saisse - keyboards, piano, programming, drum programming
Dennis Chambers - drums
Anthony Jackson - bass
Poogie Bell - drum programming
Jeff Golub - guitar
Mario Rodriguez - electric bass
Cyro Baptista - percussion
Michael Davis - trombone
Jim Hynes - trumpet,
Andy Snitzer - alto sax
Romero Lubambo - guitar
Robbie Gonzalez - drums and hand drums
Vanessa Falabella - background vocals
Ron Jenkins - bass

Produced by Philippe Saisse


Exact Audio Copy V0.99 prebeta 4 from 23. January 2008

EAC extraction logfile from 6. April 2010, 20:38

Gato Barbieri / Qui Pasa

Used drive : HL-DT-STDVD-RAM GH22NP20 Adapter: 0 ID: 0

Read mode : Secure
Utilize accurate stream : Yes
Defeat audio cache : Yes
Make use of C2 pointers : No

Read offset correction : 102
Overread into Lead-In and Lead-Out : No
Fill up missing offset samples with silence : Yes
Delete leading and trailing silent blocks : No
Null samples used in CRC calculations : Yes
Used interface : Installed external ASPI interface
Gap handling : Appended to previous track

Used output format : User Defined Encoder
Selected bitrate : 320 kBit/s
Quality : High
Add ID3 tag : No
Command line compressor : C:\Program Files\Exact Audio Copy\Flac\flac.exe
Additional command line options : -V -8 -T "artist=%a" -T "title=%t" -T "album=%g" -T "date=%y" -T "tracknumber=%n" -T "genre=%m" %s


TOC of the extracted CD

Track | Start | Length | Start sector | End sector
––––––––––––––––––––––––––––-
1 | 0:00.00 | 5:36.25 | 0 | 25224
2 | 5:36.25 | 5:57.70 | 25225 | 52069
3 | 11:34.20 | 5:18.72 | 52070 | 75991
4 | 16:53.17 | 6:24.68 | 75992 | 104859
5 | 23:18.10 | 5:54.10 | 104860 | 131419
6 | 29:12.20 | 5:13.00 | 131420 | 154894
7 | 34:25.20 | 5:01.67 | 154895 | 177536
8 | 39:27.12 | 4:48.50 | 177537 | 199186
9 | 44:15.62 | 5:10.60 | 199187 | 222496
10 | 49:26.47 | 5:49.05 | 222497 | 248676
11 | 55:15.52 | 4:27.23 | 248677 | 268724


Track 1

Filename D:\music\Musicgate's rips\Gato Barbieri - Qui Pasa (1997)\01 - Straight Into the Sunrise.wav

Pre-gap length 0:00:02.00

Peak level 99.8 %
Track quality 100.0 %
Test CRC D080BD62
Copy CRC D080BD62
Cannot be verified as accurate (confidence 1) [81D41186], AccurateRip returned [D4460AD6]
Copy OK

Track 2

Filename D:\music\Musicgate's rips\Gato Barbieri - Qui Pasa (1997)\02 - Blue Gala.wav

Peak level 98.7 %
Track quality 99.9 %
Test CRC B7A0AB3E
Copy CRC B7A0AB3E
Accurately ripped (confidence 1) [F8803ABF]
Copy OK

Track 3

Filename D:\music\Musicgate's rips\Gato Barbieri - Qui Pasa (1997)\03 - Mystica.wav

Peak level 99.8 %
Track quality 100.0 %
Test CRC C86B01D6
Copy CRC C86B01D6
Accurately ripped (confidence 1) [664857AA]
Copy OK

Track 4

Filename D:\music\Musicgate's rips\Gato Barbieri - Qui Pasa (1997)\04 - Dancing With Dolphins.wav

Peak level 99.8 %
Track quality 100.0 %
Test CRC 2C9373AF
Copy CRC 2C9373AF
Accurately ripped (confidence 1) [11DABE84]
Copy OK

Track 5

Filename D:\music\Musicgate's rips\Gato Barbieri - Qui Pasa (1997)\05 - Circulos.wav

Pre-gap length 0:00:01.44

Peak level 98.7 %
Track quality 100.0 %
Test CRC 4C83C6A4
Copy CRC 4C83C6A4
Accurately ripped (confidence 1) [908F089A]
Copy OK

Track 6

Filename D:\music\Musicgate's rips\Gato Barbieri - Qui Pasa (1997)\06 - Guadeloupe.wav

Peak level 98.7 %
Track quality 100.0 %
Test CRC 02080898
Copy CRC 02080898
Accurately ripped (confidence 1) [E13B8303]
Copy OK

Track 7

Filename D:\music\Musicgate's rips\Gato Barbieri - Qui Pasa (1997)\07 - Cause We've Ended As Lovers.wav

Peak level 98.7 %
Track quality 100.0 %
Test CRC A4A24F44
Copy CRC A4A24F44
Accurately ripped (confidence 1) [8CC944EF]
Copy OK

Track 8

Filename D:\music\Musicgate's rips\Gato Barbieri - Qui Pasa (1997)\08 - Indonesia.wav

Peak level 98.7 %
Track quality 100.0 %
Test CRC FCBB58CF
Copy CRC FCBB58CF
Accurately ripped (confidence 1) [2494E3F3]
Copy OK

Track 9

Filename D:\music\Musicgate's rips\Gato Barbieri - Qui Pasa (1997)\09 - The Woman I Remember.wav

Peak level 99.8 %
Track quality 99.9 %
Test CRC 26EC1CA3
Copy CRC 26EC1CA3
Accurately ripped (confidence 1) [90016B5A]
Copy OK

Track 10

Filename D:\music\Musicgate's rips\Gato Barbieri - Qui Pasa (1997)\10 - Granada.wav

Peak level 98.7 %
Track quality 100.0 %
Test CRC BB4D2CDA
Copy CRC BB4D2CDA
Accurately ripped (confidence 1) [5E809D9B]
Copy OK

Track 11

Filename D:\music\Musicgate's rips\Gato Barbieri - Qui Pasa (1997)\11 - Adentro.wav

Peak level 98.7 %
Track quality 99.9 %
Test CRC 8126B30F
Copy CRC 8126B30F
Accurately ripped (confidence 1) [F2D1DB33]
Copy OK


0 track(s) accurately ripped
1 track(s) could not be verified as accurate

Some tracks could not be verified as accurate

No errors occurred

End of status report


––––––––––––––––––––––––––––––––––––––––
Analyzed: Gato Barbieri / Qui Pasa
––––––––––––––––––––––––––––––––––––––––

DR Peak RMS Duration Track
––––––––––––––––––––––––––––––––––––––––
DR8 -0.01 dB -10.23 dB 5:36 01-Straight Into the Sunrise
DR8 -0.11 dB -10.21 dB 5:58 02-Blue Gala
DR8 -0.01 dB -9.85 dB 5:19 03-Mystica
DR8 -0.01 dB -11.09 dB 6:25 04-Dancing With Dolphins
DR8 -0.11 dB -10.46 dB 5:54 05-Circulos
DR8 -0.11 dB -10.47 dB 5:13 06-Guadeloupe
DR9 -0.11 dB -10.31 dB 5:02 07-Cause We've Ended As Lovers
DR7 -0.11 dB -9.12 dB 4:49 08-Indonesia
DR8 -0.01 dB -9.80 dB 5:11 09-The Woman I Remember
DR9 -0.11 dB -10.28 dB 5:49 10-Granada
DR8 -0.11 dB -9.87 dB 4:27 11-Adentro
––––––––––––––––––––––––––––––––––––––––

Number of tracks: 11
Official DR value: DR8

Samplerate: 44100 Hz
Channels: 2
Bits per sample: 16
Bitrate: 902 kbps
Codec: FLAC
================================================================================

Gato Barbieri - Qui Pasa (1997) {Columbia}
Gato Barbieri - Qui Pasa (1997) {Columbia}
Gato Barbieri - Qui Pasa (1997) {Columbia}


Thanks to the original ripper