Subcategories

Gato Barbieri - Passion And Fire (1984)

Posted By: tiburon
Gato Barbieri - Passion And Fire (1984)

Gato Barbieri - Passion And Fire (1984)
EAC 0.95b4 | FLAC tracks level 8 | Cue+Log+M3U | Full Scans 300dpi | 256MB + 5% Recovery
MP3 CBR 320 Kbps | 106MB + 5% Recovery
Genre: Latin Jazz, Fusion

Gato Barbieri is the second Argentine musician to make a significant impact upon modern jazz — the first being Lalo Schifrin, in whose band Barbieri played as a teenager. His story has been that of an elongated zigzag odyssey between his homeland and North America. He started out playing to traditional Latin rhythms in his early years, turning his back on his heritage to explore the jazz avant-garde in the '60s, reverting to South American influences in the early '70s, playing pop and fusion in the late '70s, only to go back and forth again in the '80s. North American audiences first heard Barbieri when he was a wild bull, sporting a coarse, wailing John Coltrane/Pharoah Sanders-influenced tone.
Track List
01. I Want You 5:57
02. Fiesta 4:00
03. Europa (Earth's Cry, Heaven's Smile) 4:12
04. Poinciana (Song Of The Tree) 3:41
05. Theme From Firepower 3:17
06. She Is Michelle 6:12
07. Ruby 3:57
08. Speak Low 6:33

musicians
Gato Barbieri - saxophone
Lenny White - drums
Gary King - bass
Eric Gale - guitar
Lee Ritenour - guitar
Anthony Jackson - bass
Billy Cobham - drums
Paulinho Da Costa - percussion
David Spinozza - guitar
Joe Beck - guitar
Eddy Martinez - keyboards
Don Grolnick - keyboards, synthesizer
Ralph MacDonald - percussion
Cachete Maldonado - percussion
Mtume - percussion
Eddie Watkins - bass
Leon Ndugu Chancler - drums
John Barnes - keyboards
Greg Poree - guitar
Melvin Watson - guitar
Bill Summers - percussion, congas
Armando Peraza - bongos
Richard Tee - keyboards
Jose Chepito Peraza - bongos
The Waters - background vocals
Neil Jason - bass
Alan Schwartzberg - drums
Jeff Layton - guitar
Lance Quinn - guitar
Pat Rebillot - keyboards
Jimmy Maelen - percussion
Miguel Vaidez-Pomier - percussion
Bernard Purdie - drums

Produced by Herb Alpert, David Robinson and Jay Chattaway


EAC extraction logfile from 31. August 2007, 20:52 for CD
Gato Barbieri / Passion and Fire

Used drive : Optiarc DVD RW AD-5170A Adapter: 1 ID: 0
Read mode : Secure with NO C2, accurate stream, disable cache
Read offset correction : 48
Overread into Lead-In and Lead-Out : No

Used output format : D:\tools\FLAC\flac.exe (User Defined Encoder)
128 kBit/s
Additional command line options : -V -8 -T "artist=%a" -T "title=%t" -T "album=%g" -T "date=%y" -T "tracknumber=%n" -T "genre=%m" %s

Other options :
Fill up missing offset samples with silence : Yes
Delete leading and trailing silent blocks : No
Native Win32 interface for Win NT & 2000


Track 1
Filename D:\0\Gato Barbieri - Passion and Fire (1984) [FLAC]\01 - I Want You.wav

Pre-gap length 0:00:02.00

Peak level 78.1 %
Track quality 99.9 %
Test CRC 0422C7F6
Copy CRC 0422C7F6
Copy OK

Track 2
Filename D:\0\Gato Barbieri - Passion and Fire (1984) [FLAC]\02 - Fiesta.wav

Pre-gap length 0:00:01.46

Peak level 75.2 %
Track quality 100.0 %
Test CRC 515A9C16
Copy CRC 515A9C16
Copy OK

Track 3
Filename D:\0\Gato Barbieri - Passion and Fire (1984) [FLAC]\03 - Europa (Earth's Cry Heaven's Smile).wav

Pre-gap length 0:00:00.93

Peak level 78.7 %
Track quality 97.7 %
Test CRC 3E313090
Copy CRC 3E313090
Copy OK

Track 4
Filename D:\0\Gato Barbieri - Passion and Fire (1984) [FLAC]\04 - Poinciana (Song of the Tree).wav

Pre-gap length 0:00:01.10

Peak level 71.7 %
Track quality 100.0 %
Test CRC 9D69A4D3
Copy CRC 9D69A4D3
Copy OK

Track 5
Filename D:\0\Gato Barbieri - Passion and Fire (1984) [FLAC]\05 - Theme From Firepower.wav

Peak level 81.2 %
Track quality 100.0 %
Test CRC 6613D174
Copy CRC 6613D174
Copy OK

Track 6
Filename D:\0\Gato Barbieri - Passion and Fire (1984) [FLAC]\06 - She Is Michelle.wav

Pre-gap length 0:00:01.49

Peak level 77.3 %
Track quality 100.0 %
Test CRC B9BF321A
Copy CRC B9BF321A
Copy OK

Track 7
Filename D:\0\Gato Barbieri - Passion and Fire (1984) [FLAC]\07 - Ruby.wav

Pre-gap length 0:00:01.49

Peak level 84.2 %
Track quality 100.0 %
Test CRC 95645D92
Copy CRC 95645D92
Copy OK

Track 8
Filename D:\0\Gato Barbieri - Passion and Fire (1984) [FLAC]\08 - Speak Low.wav

Pre-gap length 0:00:01.33

Peak level 88.4 %
Track quality 99.9 %
Test CRC 85B052E6
Copy CRC 85B052E6
Copy OK

No errors occured


End of status report


––––––––––––––––––––––––––––––––––––––––
Analyzed: Gato Barbieri / Passion and Fire
––––––––––––––––––––––––––––––––––––––––

DR Peak RMS Duration Track
––––––––––––––––––––––––––––––––––––––––
DR11 -2.14 dB -16.23 dB 5:59 01-I Want You
DR11 -2.47 dB -17.20 dB 4:02 02-Fiesta
DR11 -2.08 dB -17.52 dB 4:14 03-Europa (Earth's Cry Heaven's Smile)
DR11 -2.88 dB -16.19 dB 3:41 04-Poinciana (Song of the Tree)
DR11 -1.81 dB -14.86 dB 3:19 05-Theme From Firepower
DR11 -2.23 dB -17.48 dB 6:15 06-She Is Michelle
DR12 -1.49 dB -17.32 dB 4:00 07-Ruby
DR11 -1.07 dB -14.86 dB 6:34 08-Speak Low
––––––––––––––––––––––––––––––––––––––––

Number of tracks: 8
Official DR value: DR11

Samplerate: 44100 Hz
Channels: 2
Bits per sample: 16
Bitrate: 942 kbps
Codec: FLAC
================================================================================

Gato Barbieri - Passion And Fire (1984)
Gato Barbieri - Passion And Fire (1984)
Gato Barbieri - Passion And Fire (1984)


Thanks to the original ripper