Subcategories

Frozen Ghost - Frozen Ghost (1987)

Posted By: Designol
Frozen Ghost - Frozen Ghost (1987)

Frōzen Ghōst - Frōzen Ghōst (1987)
EAC | FLAC | Tracks (Cue&Log) ~ 272 Mb | Mp3 (CBR320) ~ 116 Mb | Scans included
Rock, Pop Rock, New Wave | Label: WEA | # CD 81736 | Time: 00:39:46

The intoxicating debut from Frozen Ghost commingles Great White North album-oriented rock with a classy new wave chill worthy of their mysterious moniker. Not as artsy as Duran Duran, not as emotive as Ultravox, this pair may be the Canadian answer to Tears for Fears, only better than that sounds. Opening minor hit "Should I See" might as well be the Fixx, but it's actually brainchild Andre Lanni establishing his way with ruminating rhymes and mechanical melody. He came from Sheriff, where he wrote their posthumous smash "When I'm With You" and, after three fine FG works, went on to become a powerhouse producer (King's X) and mentor (Our Lady Peace). Except for the radio number mentioned above, Frozen Ghost fell off the face of the planet instantly. A shame, as the world missed out on the mysterious stranger lurking in "Yum Bai Ya," the military melancholy of "Soldiers Cry," and "End of the Line," a flat-out great pop tune not related to the Traveling Wilburys hit of the same period or even the Roxy Music song (though Roxy roots appear elsewhere). Actually, every track is rock-solid and probably gone forever, further adding to the mystique of one of the all-time should-have-beens.

Review by Whitney Z. Gomes, Allmusic.com

Frozen Ghost - Frozen Ghost (1987)



Tracklist:

01. Should I See (3:51)
02. Promises (3:52)
03. Beware The Masque (4:11)
04. Yum Bai Ya (3:55)
05. Love Like Fire (4:09)
06. End Of The Line (3:35)
07. Time Is The Answer (4:04)
08. Love Without Lies (4:12)
09. Soldiers Cry (3:37)
10. Truth In Lies (4:22)


Exact Audio Copy V1.0 beta 3 from 29. August 2011

EAC extraction logfile from 12. July 2016, 20:56

Frozen Ghost / Frozen Ghost

Used drive : ASUS DRW-20B1LT Adapter: 2 ID: 0

Read mode : Secure
Utilize accurate stream : Yes
Defeat audio cache : Yes
Make use of C2 pointers : No

Read offset correction : 6
Overread into Lead-In and Lead-Out : No
Fill up missing offset samples with silence : Yes
Delete leading and trailing silent blocks : No
Null samples used in CRC calculations : Yes
Used interface : Native Win32 interface for Win NT & 2000
Gap handling : Appended to previous track

Used output format : User Defined Encoder
Selected bitrate : 896 kBit/s
Quality : High
Add ID3 tag : No
Command line compressor : C:\Program Files\Exact Audio Copy\Flac\flac.exe
Additional command line options : -8 -V -T "ARTIST=%artist%" -T "TITLE=%title%" -T "ALBUM=%albumtitle%" -T "DATE=%year%" -T "TRACKNUMBER=%tracknr%" -T "GENRE=%genre%" -T "COMMENT=EAC FLAC -8" %source%


TOC of the extracted CD

Track | Start | Length | Start sector | End sector
––––––––––––––––––––––––––––-
1 | 0:00.00 | 3:50.47 | 0 | 17296
2 | 3:50.47 | 3:51.40 | 17297 | 34661
3 | 7:42.12 | 4:10.63 | 34662 | 53474
4 | 11:53.00 | 3:55.15 | 53475 | 71114
5 | 15:48.15 | 4:08.52 | 71115 | 89766
6 | 19:56.67 | 3:34.55 | 89767 | 105871
7 | 23:31.47 | 4:03.40 | 105872 | 124136
8 | 27:35.12 | 4:12.10 | 124137 | 143046
9 | 31:47.22 | 3:36.45 | 143047 | 159291
10 | 35:23.67 | 4:22.35 | 159292 | 178976


Track 1

Filename K:\EACrips\Frozen Ghost - Frozen Ghost\01 - Should I See.wav

Pre-gap length 0:00:02.00

Peak level 78.2 %
Extraction speed 3.4 X
Track quality 100.0 %
Test CRC 4556307C
Copy CRC 4556307C
Accurately ripped (confidence 4) [3A56D1F1] (AR v2)
Copy OK

Track 2

Filename K:\EACrips\Frozen Ghost - Frozen Ghost\02 - Promises.wav

Peak level 91.0 %
Extraction speed 3.7 X
Track quality 100.0 %
Test CRC 52B0D037
Copy CRC 52B0D037
Accurately ripped (confidence 4) [A0AD6590] (AR v2)
Copy OK

Track 3

Filename K:\EACrips\Frozen Ghost - Frozen Ghost\03 - Beware The Masque.wav

Pre-gap length 0:00:00.62

Peak level 83.5 %
Extraction speed 4.1 X
Track quality 100.0 %
Test CRC BE1F6092
Copy CRC BE1F6092
Accurately ripped (confidence 4) [3C499ACC] (AR v2)
Copy OK

Track 4

Filename K:\EACrips\Frozen Ghost - Frozen Ghost\04 - Yum Bai Ya.wav

Pre-gap length 0:00:00.48

Peak level 74.1 %
Extraction speed 4.3 X
Track quality 100.0 %
Test CRC 893C2D8B
Copy CRC 893C2D8B
Accurately ripped (confidence 4) [B97F1D88] (AR v2)
Copy OK

Track 5

Filename K:\EACrips\Frozen Ghost - Frozen Ghost\05 - Love Like Fire.wav

Peak level 83.2 %
Extraction speed 4.6 X
Track quality 100.0 %
Test CRC 97CFDD73
Copy CRC 97CFDD73
Accurately ripped (confidence 4) [A2BBE794] (AR v2)
Copy OK

Track 6

Filename K:\EACrips\Frozen Ghost - Frozen Ghost\06 - End Of The Line.wav

Pre-gap length 0:00:01.10

Peak level 78.5 %
Extraction speed 4.8 X
Track quality 100.0 %
Test CRC FA0BCB37
Copy CRC FA0BCB37
Accurately ripped (confidence 4) [8A714972] (AR v2)
Copy OK

Track 7

Filename K:\EACrips\Frozen Ghost - Frozen Ghost\07 - Time Is The Answer.wav

Peak level 82.0 %
Extraction speed 5.2 X
Track quality 100.0 %
Test CRC 9FC4D813
Copy CRC 9FC4D813
Accurately ripped (confidence 4) [35359599] (AR v2)
Copy OK

Track 8

Filename K:\EACrips\Frozen Ghost - Frozen Ghost\08 - Love Without Lies.wav

Peak level 76.8 %
Extraction speed 5.5 X
Track quality 100.0 %
Test CRC 88B221E5
Copy CRC 88B221E5
Accurately ripped (confidence 4) [178693F4] (AR v2)
Copy OK

Track 9

Filename K:\EACrips\Frozen Ghost - Frozen Ghost\09 - Soldiers Cry.wav

Peak level 86.9 %
Extraction speed 5.6 X
Track quality 100.0 %
Test CRC 696EDCA1
Copy CRC 696EDCA1
Accurately ripped (confidence 4) [59A77EF9] (AR v2)
Copy OK

Track 10

Filename K:\EACrips\Frozen Ghost - Frozen Ghost\10 - Truth In Lies.wav

Peak level 86.8 %
Extraction speed 5.9 X
Track quality 100.0 %
Test CRC A16035E8
Copy CRC A16035E8
Accurately ripped (confidence 4) [092176B6] (AR v2)
Copy OK


All tracks accurately ripped

No errors occurred

End of status report

==== Log checksum 406A8CBAB50C850CC94F9738BCCB565CFD914CF8F02EEFADC981B1147D720A0E ====

[CUETools log; Date: 01.02.2018 2:58:27; Version: 2.1.4]
[CTDB TOCID: YRY6eWfZ3SwEGFJpmFuXzsMSw3U-] found.
Track | CTDB Status
1 | (11/12) Accurately ripped
2 | (12/12) Accurately ripped
3 | (12/12) Accurately ripped
4 | (12/12) Accurately ripped
5 | (12/12) Accurately ripped
6 | (12/12) Accurately ripped
7 | (10/12) Accurately ripped
8 | (11/12) Accurately ripped
9 | (12/12) Accurately ripped
10 | (12/12) Accurately ripped
[AccurateRip ID: 000eeae9-007779bc-7e09520a] found.
Track [ CRC | V2 ] Status
01 [ecd7d943|3a56d1f1] (04+04/16) Accurately ripped
02 [66120a6b|a0ad6590] (04+04/16) Accurately ripped
03 [046ef123|3c499acc] (04+04/16) Accurately ripped
04 [c4a64c61|b97f1d88] (04+04/16) Accurately ripped
05 [512a6d6e|a2bbe794] (04+04/16) Accurately ripped
06 [f1fa3a3e|8a714972] (04+04/16) Accurately ripped
07 [fcdce008|35359599] (04+04/16) Accurately ripped
08 [b5055d7b|178693f4] (04+04/16) Accurately ripped
09 [ad746782|59a77ef9] (04+04/16) Accurately ripped
10 [a15988dd|092176b6] (04+04/16) Accurately ripped
Offsetted by 348:
01 [89367af6] (06/16) Accurately ripped
02 [becd2c4b] (06/16) Accurately ripped
03 [6ce89dd1] (06/16) Accurately ripped
04 [7cc400bd] (06/16) Accurately ripped
05 [3f0c6240] (06/16) Accurately ripped
06 [800f41e7] (06/16) Accurately ripped
07 [fe0da66b] (06/16) Accurately ripped
08 [ea0b5a65] (06/16) Accurately ripped
09 [01c3145a] (06/16) Accurately ripped
10 [742c636d] (06/16) Accurately ripped
Offsetted by 448:
01 [e3069bfe] (00/16) No match (V2 was not tested)
02 [23bdaca7] (00/16) No match (V2 was not tested)
03 [12ec1230] (00/16) No match
04 [dfff000c] (00/16) No match (V2 was not tested)
05 [1dc10a2e] (00/16) No match
06 [a5990753] (00/16) No match (V2 was not tested)
07 [11f74046] (00/16) No match
08 [7a743c24] (00/16) No match
09 [a18b3754] (00/16) No match
10 [3c257cb8] (00/16) No match (V2 was not tested)

Track Peak [ CRC32 ] [W/O NULL] [ LOG ]
– 91,0 [77C7EBFD] [4B23FDF3]
01 78,2 [4556307C] [26A80654] CRC32
02 91,0 [52B0D037] [DBDE68D1] CRC32
03 83,5 [BE1F6092] [206B0B0A] CRC32
04 74,1 [893C2D8B] [80A888A1] CRC32
05 83,2 [97CFDD73] [939E70E7] CRC32
06 78,5 [FA0BCB37] [8549BD8D] CRC32
07 82,0 [9FC4D813] [2BC84BBE] CRC32
08 76,8 [88B221E5] [74291890] CRC32
09 86,9 [696EDCA1] [1A59AE54] CRC32
10 86,8 [A16035E8] [CF56A63F] CRC32

foobar2000 1.2 / Dynamic Range Meter 1.1.1
log date: 2018-02-01 02:58:11

––––––––––––––––––––––––––––––––––––––––
Analyzed: Frozen Ghost / Frozen Ghost
––––––––––––––––––––––––––––––––––––––––

DR Peak RMS Duration Track
––––––––––––––––––––––––––––––––––––––––
DR13 -2.14 dB -16.62 dB 3:51 01-Should I See
DR14 -0.82 dB -17.93 dB 3:52 02-Promises
DR12 -1.57 dB -16.18 dB 4:11 03-Beware The Masque
DR13 -2.60 dB -17.32 dB 3:55 04-Yum Bai Ya
DR13 -1.59 dB -17.80 dB 4:09 05-Love Like Fire
DR12 -2.10 dB -16.89 dB 3:35 06-End Of The Line
DR13 -1.72 dB -16.58 dB 4:04 07-Time Is The Answer
DR13 -2.29 dB -17.11 dB 4:12 08-Love Without Lies
DR13 -1.21 dB -17.15 dB 3:37 09-Soldiers Cry
DR12 -1.23 dB -18.18 dB 4:22 10-Truth In Lies
––––––––––––––––––––––––––––––––––––––––

Number of tracks: 10
Official DR value: DR13

Samplerate: 44100 Hz
Channels: 2
Bits per sample: 16
Bitrate: 820 kbps
Codec: FLAC
================================================================================

Frozen Ghost - Frozen Ghost (1987)

Frozen Ghost - Frozen Ghost (1987)

All thanks to original releaser

More interesting music in My Blog